File-Portal

авва концерт скачать торрент

Рейтинг: 4.6/5.0 (123 проголосовавших)

Категория: Торрент-файлы

Описание

Скачать торрент АББА: фильм

АББА: фильм

Название: АББА: фильм

Оригинальное название: ABBA: The Movie

Год выпуска: 1977

Режиссер: Лассе Халльстрём

Продюссер: Стиг Андерсон, Рег Гранди

Сценарий: Роберт Касуэлл, Лассе Халльстрём

В ролях: Анни-Фрид Люнгстад, Бенни Андерссон, Бьёрн Ульвеус, Агнета Фэльтскуг, Роберт Хьюз, Том Оливер, Брюс Бэрри, Стиг Андерсон, Кэлвин Кросс, Ивар Дальборн

Фильм охватывает период наивысшей популярности шведской группы "АББА", между альбомом 1976 года «Arrival» и альбомом 1977 года «The Album», песни из которых представлены в виде видеозарисовок. Фильм рассказывает об австралийских гастролях группы. Незадачливый репортер и диск-жокей (Хьюз) пытается взять интервью у музыкантов. Зритель узнает о жизни и работе популярного квартета. В фильме звучат хиты:[/b] "Dancing Queen", "Tiger", "Name Of The Game", "Eagle", "Thank You For The Music" и др.

Продолжительность: 95 мин.

Перевод: Профессиональный (многоголосый, закадровый)+оригинал

Качество: BDRip 1080p( источник Blu-ray (1080p)

Видео кодек: H.26x

Аудио кодек: AC3

Видео: English, 4840 Кбит/сек, 1920*816 (2,450), в 24,000 кадр/сек, AVC

Аудио#: Russian, 640 Кбит/сек, 48,0 КГц, 16 бит, 6 канала(ов), AC-3

Аудио#:Russian640 Кбит/сек, 48,0 КГц, 16 бит, 6 канала(ов), AC-3(А.Гаврилов)

Аудио#:English448 Кбит/сек, 48,0 КГц, 16 бит, 6 канала(ов), AC-3

авва концерт скачать торрент:

  • скачать
  • скачать
  • Другие статьи

    Скачать торрент ABBA - In Concert (2002) DVDRip

    Скачать ABBA - In Concert / [2002, Dance Music, DVDRip-AVC] - торрент

    Торрент можно скачать, нажав синюю кнопку ниже.

    Авва концерт скачать торрентФормат: DVDRip-AVC, MKV, H.264, AC3

    Песня: In Concert

    1741 Kbps avg, 0.180 bit/pixel

    Аудио: 48 kHz, AC3, 6 ch

    03.Take A Chance On Me

    06.I Have A Dream

    07.Gimme! Gimme! Gimme! (A Man After Midnight),

    08.Knowing Me, Knowing You

    09.Summer Night City

    11.Does Your Mother Know

    12.Hole In Your Soul

    Уникальный идентификатор : 212609052908084673376521415478129897088 (0x9FF3039EF6CC8CD09636534833D2AE80)

    Полное имя : F:\TREKER\ТЕМР\abba_in_concert_[my-tfile.org].mkv

    Версия формата : Version 2

    Размер файла : 810 Мбайт

    Продолжительность : 51 м.

    Общий поток : 2195 Кбит/сек

    Название фильма : abba_in_concert_[my-tfile.org]

    Дата кодирования : UTC 2016-06-05 09:09:41

    Программа кодирования : mkvmerge v4.0.0 ('The Stars were mine') сборка от Jun 6 2010 16:18:42

    Библиотека кодирования : libebml v1.0.0 + libmatroska v1.0.0

    Формат/Информация : Advanced Video Codec

    Профиль формата : High@L4.1

    Параметр CABAC формата : Да

    Параметр ReFrames формата : 6 кадров

    Идентификатор кодека : V_MPEG4/ISO/AVC

    Продолжительность : 51 м.

    Битрейт : 1741 Кбит/сек

    Ширина : 720 пикселей

    Высота : 536 пикселей

    Соотношение сторон : 4:3

    Режим частоты кадров : Постоянный

    Частота кадров : 25,000 кадров/сек

    Цветовое пространство : YUV

    Субдискретизация насыщенности : 4:2:0

    Битовая глубина : 8 бит

    Тип развёртки : Прогрессивная

    Размер потока : 629 Мбайт (78%)

    Библиотека кодирования : x264 core 146 r2538 121396c

    Настройки программы : cabac=1 / ref=6 / deblock=1:-1:-1 / analyse=0x3:0x133 / me=umh / subme=10 / psy=1 / psy_rd=1.00:0.15 / mixed_ref=1 / me_range=24 / chroma_me=1 / trellis=2 / 8x8dct=1 / cqm=0 / deadzone=21,11 / fast_pskip=0 / chroma_qp_offset=-3 / threads=12 / lookahead_threads=1 / sliced_threads=0 / nr=0 / decimate=1 / interlaced=0 / bluray_compat=0 / constrained_intra=0 / bframes=3 / b_pyramid=2 / b_adapt=2 / b_bias=0 / direct=1 / weightb=1 / open_gop=0 / weightp=2 / keyint=250 / keyint_min=25 / scenecut=40 / intra_refresh=0 / rc_lookahead=50 / rc=abr / mbtree=1 / bitrate=1741 / ratetol=1.0 / qcomp=0.69 / qpmin=0 / qpmax=69 / qpstep=4 / ip_ratio=1.40 / aq=1:1.00

    Формат/Информация : Audio Coding 3

    Расширение режима : CM (complete main)

    Параметр Endianness формата : Big

    Идентификатор кодека : A_AC3

    Продолжительность : 51 м.

    Вид битрейта : Постоянный

    Битрейт : 448 Кбит/сек

    Каналы : 6 каналов

    Расположение каналов : Front: L C R, Side: L R, LFE

    Частота : 48,0 КГц

    Частота кадров : 31,250 кадров/сек (1536 spf)

    Метод сжатия : С потерями

    Размер потока : 165 Мбайт (20%)

    00:00:00.000 : en:Chapter 1

    00:04:30.040 : en:Chapter 2

    00:07:24.440 : en:Chapter 3

    00:09:32.800 : en:Chapter 4

    00:11:06.800 : en:Chapter 5

    00:14:06.000 : en:Chapter 6

    00:14:26.080 : en:Chapter 7

    00:18:29.000 : en:Chapter 8

    00:24:21.320 : en:Chapter 9

    00:29:32.880 : en:Chapter 10

    00:31:42.480 : en:Chapter 11

    00:37:21.560 : en:Chapter 12

    00:41:26.360 : en:Chapter 13

    00:45:24.720 : en:Chapter 14

    00:50:02.360 : en:Chapter 15

    Авва концерт скачать торрент

    Авва концерт скачать торрент

    Авва концерт скачать торрент

    Авва концерт скачать торрент

    Информация о торренте:

    Статус: Проверен Зарегистрирован на трекере: 2016-06-05 12:25

    Скачать торрент АББА: фильм

    авва концерт скачать торрент

    Оригинальное название: ABBA: The Movie

    Год выпуска: 1977

    Жанр: Музыка, Драма

    Производство: Австралия, Швеция / Polar Music International, Reg Grundy Productions Pty. Ltd.

    Фильм рассказывает об австралийских гастролях сверхпопулярной в свое время шведской группы "АББА". Незадачливый репортер и диск-жокей Хьюз, пытается взять интервью у музыкантов. Постановка красивая, динамичная, без провалов и пустот, умный монтаж, создающий впечатление документальности происходящего. Зритель узнает кое-что о жизни и методах их работы. Настоящий подарок для тех, кто до сих пор слушает эту талантливую музыку.

    Фильм охватывает период наивысшей популярности группы, между альбомом 1976 года «Arrival» и альбомом 1977 года «The Album», песни из которых представлены в виде видеозарисовок.

    Актеры: Агнета Фельтскуг, Бенни Андерссон, Бьерн Ульвеус, Анни-Фрид Люнгстад , Роберт Хьюз, Том Оливер, Брюс Барри, Стиг Андерсон, Рей Маршалл, Фрэнсис Мэттьюс

    Перевод: Многоголосый закадровый (ТВ5)

    Язык субтитров: Русский, английский

    Вид субтитров: Вшитые отключаемые

    Видео: MPEG-4 AVC/H.264, 988x424 (2.33:1), 24,000 fps, 2389 Кbps, 0.238 bit/pixel

    Аудио#1: 48 kHz, AC3 Dolby Digital, 3/2 (L,C,R,l,r) + LFE ch, 448.00 kbps | Русский

    Аудио#2: 48 kHz, AC3 Dolby Digital, 3/2 (L,C,R,l,r) + LFE ch, 448.00 kbps |

    ABBA - Видеоклипы (1973-1981) скачать торрент бесплатно - музыкальные клипы через toptorrent

    ABBA - Видеоклипы (1973-1981)

    Авва концерт скачать торрент

    Bang A Boomerang

    Dancing Queen (1992 Version)

    Dancing Queen (Sweden's Carl XVI Gustaf Wedding Celebration June 1976)

    Does Your Mother Know

    Gimme! Gimme! Gimme! (A Man After Midnight)

    Head Over Heels

    I Do, I Do, I Do, I Do, I Do (From Hei Sveis 1975)

    I Do, I Do, I Do, I Do, I Do

    I Have A Dream (Live Via Eurovision From Stockholm 1979)

    Knowing Me, Knowing You

    Lay All Your Love On Me

    Money, Money, Money

    No Hay A Quien Culpar

    On And On And On

    One Man, One Woman

    S. O. S. (From Hei Sveis 1975)

    Summer Night City

    Take A Chanse On Me

    Thank You For The Music

    The Day Before You Came

    The Name Of The Game

    The Winner Takes It All

    Under Attack (From The Late Late Breakfast Show, England 1982)

    ABBA - Live At Wembley (1982) DVD5 - Торрент

    Авва концерт скачать торрент

    ABBA - Live At Wembley › Торрент Музыка, Видео » DVD5, Disco, Pop, Концерты
    • _ilu_
    • 26.06.2011 23:09:27
    • 9572

    Авва концерт скачать торрент

    Название: Live At Wembley

    Год выпуска: 1982

    03.I have a Dream

    04.Gimme Gimme Gimme

    05.Knowing me,Knowing You

    06.Thank You for The Music

    07.Simmer night City

    09.Does You Mother Know

    10.Hole in Your Soul

    Авва концерт скачать торрент Авва концерт скачать торрент Авва концерт скачать торрент Авва концерт скачать торрент

    Аудио: АС3 2.0 448 Кбит/сек

    • Раздает: 0
    • Качает: 0
    • Скачали: 0
    • Размер: 1.43 Gb
    • Файлов: 8
    • Сидеры были: 10.07.2017 11:38

    VIDEO_TS/VTS_01_2.VOB - 382.19 Mb

    VIDEO_TS/VTS_01_0.VOB - 83.4 Mb

    VIDEO_TS/VIDEO_TS.VOB - 288 Kb

    VIDEO_TS/VTS_01_0.BUP - 44 Kb

    VIDEO_TS/VTS_01_0.IFO - 44 Kb

    VIDEO_TS/VIDEO_TS.IFO - 14 Kb

    VIDEO_TS/VIDEO_TS.BUP - 14 Kb

    Авва концерт скачать торрент

    Авва концерт скачать торрент

    Авва концерт скачать торрент

    Добавление комментария:

    - Поисковых роботов: 4

    Авва концерт скачать торрент

    Посещая данный ресурс вы автоматически соглашаетесь с Пользовательским соглашением

    Cвязь с администрацией: admin(doggy)firebit.org

    Уважаемый пользователь нашего сайта!

    Вы используете плагин AceStream/TorrentStream. В последнее время стало известно, что он распространяет вредоносное ПО. Рекомендуем удалить данный плагин.