File-Portal

Faces Of Death скачать торрент

Рейтинг: 4.1/5.0 (282 проголосовавших)

Категория: Торрент-файлы

Описание

Faces of death скачать торрент

Лики смерти / Faces of Death (1978) BDRip от HQ-ViDEO | A

Лики смерти / Faces of Death (1978) BDRip

Faces of death скачать торрент

Название: Лики смерти

Оригинальное название: Faces of Death

Год выхода: 1978

Жанр: документальный, ужасы

Режиссер: Джон Алан Шварц /John Alan Schwartz/

В ролях: Майкл Карр /Michael Carr/, Сэмюэл Берковитц /Samuel Berkowitz/, Мэри Эллен Брайтон /Mary Ellen Brighton/, Томас Ногучи /Thomas Noguchi/, Джон Алан Шварц /John Alan Schwartz/.

Фильм представляет из себя композицию документальных кадров и реконструкций. Фильм натуралистично освещает различные аспекты смерти, в нём содержатся шокирующие документальные кадры неестественных смертей и изуродованных тел.

Фильм НЕ РЕКОМЕНДУЕТСЯ к просмотру лицам, которые не достигли 18 лет, а также людям со слабой психикой!

Перевод: Авторский, одноголосый (Ю. Живов) + Оригинальная, английская дорожка

Качество: BDRip (Source: Blu-Ray)

Видео: 2331 kbps; 0.35 bit/pixel; 720 x 384; 1.875:1; 23.976 fps

Звук #1: AC3 Dolby Digital; 192.00 kbps, 2 Ch - AVO

Звук #2: AC3 Dolby Digital; 448.00 kbps, 6 Ch - ENG

Faces of death скачать торрент:

  • скачать
  • скачать
  • Другие статьи

    Скачать фильмы Лики смерти

    Лики смерти. Части 1,2,3,4 / Faces of Death (1978-1990) DVD5

    Лики смерти. Части 1,2,3,4 / Faces of Death (1978-1990) DVD5

    Информация о фильме

    Название: Лики смерти. Части 1,2,3,4

    Оригинальное название: Faces of Death

    Год выхода: 1978-1990

    Жанр: Документальный, ужасы.

    Режиссер: Джон Алан Шварц

    В ролях: Будующие трупики и настоящие.

    Этот нашумевший документальный фильм обращается к такому загадочному, пугающему и для многих табуированному явлению, как смерть. Зрителю, привыкшему к разыгрываемой в кино смерти, предлагается документальный, до тошноты натуралистический материал, где смерть полностью реальна, а кровь отнюдь не является краской. Войны, катастрофы, ритуальные убийства, казни, каннибализм, гибель от зубов хищников. - всевозможные лики смерти сменяют друг друга в этой зловещей, но в то же время завораживающей картине.

    Внимание! Данные фильмы запрещены в 46 странах мира! Просмотр данных фильмов может привести к пищевым расстройствам, угнетению половой функции, глубоким нервным срывам, противопоказан детям, беременным и кормящим матерям, и инвалидам детства с неустойчивой психикой!

    Продолжительность: 4 х

    Перевод: Профессиональный, один голос (Часть 1), отсутствует (2,3,4 части) . В общем то и не нужен.

    Формат: NTSC MPEG 2 DVD

    Видео: NTSC MPEG 2 DVD, 640x480, 1870 кб/с

    Скачать фильм Худшие из Лиц Смерти (1987) DVDRip через торрент

    Скачать фильм Худшие из Лиц Смерти (Худшие из Ликов Смерти) / The Worst of Faces of Death (Джон Алан Шварц) [1987, документальный, DVDRip-AVC] VO - торрент

    Скачать фильм бесплатно через торрент. Фильм доступен на нашем торрент-трекере бесплатно, без регистрации и смс.

    Faces of death скачать торрент

    Перевод: Профессиональный (одноголосый) , cубтитры : отсутствуют

    Формат: DVDRip-AVC , MKV, H.264, AC3

    Режиссер: Джон Алан Шварц

    «Лица смерти» или «Лики смерти» ("Faces of Death") — американский кинофильм, который представляет собой композицию документальных кадров и реконструкций. Фильм натуралистично освещает различные аспекты смерти, в нём содержатся шокирующие документальные кадры неестественных смертей и изуродованных тел. Существуют большие сомнения в подлинности ряда сцен в фильме. При внимательном рассмотрении можно предположить, что некоторые сцены не являются документальными, а являются лишь реконструкцией некогда произошедших событий. Алан Апоне, занимавшийся в «Лицах смерти» спецэффектами и гримом, признался, что около 40 % материала фильма является подделкой.

    В России под названием «Лики смерти» был также известен и другой фильм “Traces of Death” («Следы смерти») Dead Alive Productions, который представляет собой компиляцию документальных кадров, сопровождаемых музыкой групп Unleashed, Asphyx, Morgoth, Grave и др.

    Фильм также известен под названиями: Faces of Death, The Best of Gesichter des Todes 1-3, Wei shi da jie shu. В данном варианте перевода он назван как «Лики смерти-5. Хуже самой смерти».

    Аудио#1: Русский 48 kHz, AC3 Dolby Digital, 2/0 (L,R) ch,

    192.00 kbps avg Профессиональный (одноголосый)

    Аудио#2: Английский 48 kHz, AC3 Dolby Digital, 2/0 (L,R) ch,

    192.00 kbps avg Оригинал

    Unique ID : 221321372921910112461940166900792237703 (0xA680F229682EADE6B5D02D7672611E87)

    Complete name : D:\Downloads\Sharing\Vollstaendig\The Worst of Faces of Death (1987) - Худшие из Лиц Смерти.mkv

    Format version : Version 2

    File size : 598 MiB

    Duration : 52mn 43s

    Overall bit rate : 1 587 Kbps

    Encoded date : UTC 2013-04-26 07:19:48

    Writing application : mkvmerge v4.2.0 ('No Talking') сборка от Jul 28 2010 18:38:23

    Writing library : libebml v1.0.0 + libmatroska v1.0.0

    Format/Info : Advanced Video Codec

    Format profile : High@L3.0

    Format settings, CABAC : Yes

    Format settings, ReFrames : 3 frames

    Codec ID : V_MPEG4/ISO/AVC

    Duration : 52mn 43s

    Bit rate : 1 171 Kbps

    Width : 720 pixels

    Height : 480 pixels

    Display aspect ratio : 3:2

    Frame rate mode : Constant

    Frame rate : 29.970 fps

    Color space : YUV

    Chroma subsampling : 4:2:0

    Bit depth : 8 bits

    Scan type : Progressive

    Stream size : 442 MiB (74%)

    Title : The Worst of Faces of Death (1987)

    Writing library : x264 core 125 r2200bm 999b753

    Encoding settings : cabac=1 / ref=3 / deblock=1:0:0 / analyse=0x3:0x113 / me=hex / subme=7 / psy=1 / psy_rd=1.00:0.00 / mixed_ref=1 / me_range=16 / chroma_me=1 / trellis=1 / 8x8dct=1 / cqm=0 / deadzone=21,11 / fast_pskip=1 / chroma_qp_offset=-2 / threads=1 / lookahead_threads=1 / sliced_threads=0 / nr=0 / decimate=1 / interlaced=0 / bluray_compat=0 / constrained_intra=0 / bframes=0 / weightp=2 / keyint=250 / keyint_min=25 / scenecut=40 / intra_refresh=0 / rc=crf / mbtree=0 / crf=23.0 / qcomp=0.60 / qpmin=0 / qpmax=69 / qpstep=4 / ip_ratio=1.40 / aq=1:1.00

    Format/Info : Audio Coding 3

    Mode extension : CM (complete main)

    Format settings, Endianness : Big

    Codec ID : A_AC3

    Duration : 52mn 43s

    Bit rate mode : Constant

    Bit rate : 192 Kbps

    Channel(s) : 2 channels

    Channel positions : Front: L R

    Sampling rate : 48.0 KHz

    Bit depth : 16 bits

    Compression mode : Lossy

    Stream size : 72.4 MiB (12%)

    Format/Info : Audio Coding 3

    Mode extension : CM (complete main)

    Format settings, Endianness : Big

    Codec ID : A_AC3

    Duration : 52mn 43s

    Bit rate mode : Constant

    Bit rate : 192 Kbps

    Channel(s) : 2 channels

    Channel positions : Front: L R

    Sampling rate : 48.0 KHz

    Bit depth : 16 bits

    Compression mode : Lossy

    Stream size : 72.4 MiB (12%)

    Faces of death скачать торрент

    Faces of death скачать торрент

    Faces of death скачать торрент

    Faces of death скачать торрент

    Faces of death скачать торрент

    Информация о торренте:

    Статус: Проверен Зарегистрирован на трекере: 2016-03-21 05:15

    Лики смерти

    faces of death скачать торрент

    Информация о фильме

    Оригинальное название: Faces of Death

    Режиссер: Джон Алан Шварц /John Alan Schwartz/

    В ролях: Майкл Карр /Michael Carr/, Сэмюэл Берковитц /Samuel Berkowitz/, Мэри Эллен Брайтон /Mary Ellen Brighton/, Томас Ногучи /Thomas Noguchi/, Джон Алан Шварц /John Alan Schwartz/.

    Фильм представляет из себя композицию документальных кадров и реконструкций. Фильм натуралистично освещает различные аспекты смерти, в нём содержатся шокирующие документальные кадры неестественных смертей и изуродованных тел.

    Фильм НЕ РЕКОМЕНДУЕТСЯ к просмотру лицам, которые не достигли 18 лет, а также людям со слабой психикой!

    Перевод: Авторский, одноголосый (Ю. Живов) + Оригинальная, английская дорожка

    Видео: 2331 kbps; 0.35 bit/pixel; 720 x 384; 1.875:1; 23.976 fps

    Звук #1: AC3 Dolby Digital; 192.00 kbps, 2 Ch - AVO

    Звук #2: AC3 Dolby Digital; 448.00 kbps, 6 Ch - ENG

    Лики смерти (II

    faces of death скачать торрент

    Faces of death скачать торрент

    Название: Лики смерти (II - III)

    Оригинальное название: Faces Of Death (II - III)

    Год выхода: 1981/1985

    Жанр: Документальный, ужасы

    Режиссер: Джон Алан Шварц /John Alan Schwartz/

    Здесь представлены два фильма, которые являются продолжением первого, под названием "Лики смерти", в котором Dr. Francis B. Gross (актер Michael Carr) предлагает зрителю повторить совместное путешествие в мир опасности, где каждого из нас может подстеригать смерть, остановиться и взглянуть со стороны на то, как порою человеческая глупость, самоуверенность, или неотвратимое стечение обстоятельств приводит к печальному и ужасному концу. Некоторые из гротескных сцен смерти, варьируются от очевидной до тревожно реальной, включают: бомбежки напалмом во Вьетнаме, Кампучийских прокаженных, водитель подсевший на PCP и др. Собрание сцен, представляют собою материал из телепередач, или были сделаны бытовыми 8-ми милиметровыми кинокамерами. Этот кинофильм является логическим продолжением фильма "Лики смерти" (часть первая) и снят в той же самой манере: морги, несчастные случаи, полицейская работа снятая командами телевидения.

    Фильм НЕ РЕКОМЕНДУЕТСЯ к просмотру лицам, которые не достигли 18 лет, а также людям со слабой психикой .

    Продолжительность: 01:18:13 / 01:25:43

    Перевод: Одноголосый закадровый

    Видео: DivX 5 720x480 29.97fps 1499kb/s