File-Portal

скачать Alizee дискография через торрент

Рейтинг: 4.2/5.0 (307 проголосовавших)

Категория: Торрент-файлы

Описание

Музыкальный альбом - Alizee - Blonde (2014) скачать торрент

Music-Sbornik.ru Скачать сборники музыки через торент Музыка - это не просто набор мелодий и звуков. Музыка - это химический элемент, основная составляющая воздуха. Она заполняет наши дома, наши машины и улицы, заставляет наши сердца биться сильнее, вдохновляет на подвиги и великие свершения, на признания и поцелуи. Мобильная версия нашего сайта поможет вам найти и скачать сборники и альбомы для Вашего телефона или планшета (будь он на Андроиде, iOS или Windows 8), новинкиПопулярной музыки 2014 вскоре и 2015 года в любимых форматах - Mp3 и Lossless (Flac) бесплатно без регистрации Полная версия сайта

Скачать музыкальный альбом
Alizee - Blonde (MP3)


Год (дата) релиза: 2014
Жанр: Pop
Формат | Качество: MP3 | 320 kbps
Количество композиций (треков): 12
Продолжительность: 00:38:30
Размер: 88 Mb

Список треков, песен:
01. Blonde [03:29]
02. K.-O. [03:03]
03. Alcaline [03:18]
04. Seulement Pour Te Plaire [03:28]
05. L'amour Renfort [03:31]
06. Bi [02:44]
07. Mon Planeur [02:58]
08. Ce Qui Tue L'amour [02:49]
09. Tweet [03:22]
10. Charles Est Stone [02:44]
11. Mylиne Farmer [03:09]
12. Plus De Bye-Bye [03:55]

Помните, что процесс скачивания через торрент - БЕСПЛАТНЫЙ. Помимо этого, альбом Alizee - Blonde в формате MP3 Вы можете скачать на свой телефон (смартфон) или планшет без регистрации, просто нажав на ссылку Выше. Для тех, кто впервые столкнулся со словом "торрент" - мы подготовили краткую статью-инструкцию о том, как скачивать через торрент на телефон или на компьютер

Похожая музыка Комментарии (0)

Информация
Посетители, находящиеся в группе Прохожие. не могут оставлять комментарии к данной публикации.

скачать alizee дискография через торрент:

  • скачать
  • скачать
  • Другие статьи

    Alizee - The Best Songs (2013) MP3 скачать через торрент

    Alizee - The Best Songs (2013) MP3

    Название: Alizee - The Best Songs (2013) MP3
    Исполнитель: Alizee
    Год: 2013
    Жанр: Pop
    Страна: France
    Продолжительность: 02:30:17
    Формат/Кодек: MP3
    Битрейт аудио: 320

    01. Moi. Lolita
    02. Lui ou toi
    03. L'Alize
    04. Mon Maquis
    05. Parler tout bas
    06. Veni Vedi Vici
    07. Abracadabra
    08. Gourmandises
    09. I'm Fed Up!
    10. Youpidou
    11. J'en Ai Marre!
    12. Coeur Deja Pris
    13. L'e-mail A Des Ailes
    14. Hey! Amigo!
    15. A Contre-Courant
    16. Toc De Mac
    17. Mademoiselle Juliette
    18. Psychedelices
    19. Par les paupieres
    20. Lilly Town
    21. Lonely List
    22. Idealiser
    23. L'effet
    24. Fifty Sixty
    25. Mon Taxi Driver

    Скачать .torrent (12.0Kb)

    Администрация не несет ответственности за предоставленные на сайте материалы. Весь архив предоставлен только в ознакомительных целях.

    Любой торрент файл будет удален по требованию правообладателя.

    Alizee - Discography (2000-2013) AAC - Торрент

    Музыка » Pop. Lossless (ALAC. M4A)

    Исполнитель. Alizee
    Альбом. Discography
    Год выпуска. 2000-2013
    Жанр. Pop

    О музыке. Alizee Jacotey родилась 21 августа 1984 г. в Аяччо (Ajaccio), побережье Корсики, юг Франции. Она - первый ребенок в семье. Родители девочки большие поклонники виндсерфинга, и имя Ализе получила в честь одного из ветров. С четырех лет Ализе занималась танцами, именно с ними маленькая Ализе связывала свое будущее. В свои 11 лет Ализе выиграла конкурс рисунка, раскрасив самолет на бланке заказа. Призом для девочки стала поездка на Мальдивские остров, а ее рисунок был воспроизведён в натуральную величину на кабине самолета, который получил имя "Alizee"! В декабре 1999 г. Alizee появилась во французкой передаче для молодых талантов «Graines de Star» («Начинающая звезда»). Но попасть на нее у начинающей звезды получилось только со второго прослушивания с песней французской певицы Axelle Red (Аксель Ред) под названием «Ma priere» ( «Моя молитка»). Именно эта песня позволила Alizee на заключительной передаче получить премию в номинации Graine de chanteuse (Начинающая певица). Благодаря проекту «Graines de Star» Alizee заметили Mylene Farmer (Милен Фармер) и Laurent Boutonnat (Лоран Бутона), ставшие ее продюсерами.

    2000 - Gourmandises
    2000 - Gourmandises (Japan Release)
    2000 - Gourmandises (Taiwan)
    2003 - Mes Courants Electriques
    2003 - Mes Courants Electriques (Japan)
    2003 - Mes Courants Electriques (Taiwan Limited Edition)
    2004 - Alizee en concert
    2004 - Alizee En Concert (Taiwanese Limited Edition Bonus CD)
    2007 - Psychedelices
    2007 - Psychedelices (Edition Limitee)
    2008 - Psychedelices (Mexican Tour Edition)
    2010 - Une Enfant Du Siecle (France)
    2010 - Une Enfant Du Siecle (Russia)
    2013 - 5

    2000 - Moi. Lolita (CDS)
    2000 - L'alize (CDS)
    2000 - L'Alize (Remixes) CD-MAXI
    2001 - Moi. Lolita (German 6-track) CD-MAXI
    2001 - Parler tout bas (CDS)
    2001 - Gourmandises (CDS)
    2001 - Gourmandises (Remixees) CD-MAXI
    2002 - L'Alize (German 6-track New Edition) CD-MAXI
    2002 - Moi. Lolita (UK) CD-MAXI
    2003 - J'en ai marre! (CDS)
    2003 - J'en Ai Marre! - I'm Fed Up! (CDS)
    2003 - J'en ai marre! (Remixes CD-MAXI)
    2003 - J'en Ai Marre! - I'm Fed Up! (Remixes) CD-MAXI
    2003 - Mon bain de mousse (Japan CD-MAXI)
    2003 - J'ai pas vingt ans (CDS)
    2003 - J'ai pas vingt ans (Promo CDS)
    2003 - J'ai pas vingt ans (Remixes) CD-MAXI
    2003 - I'm Not Twenty CD-MAXI
    2003 - A contre-courant (CDS)
    2003 - A contre-courant (Promo Luxe CDS)
    2003 - A contre-courant (Remixes) CD-MAXI
    2004 - Amelie M'a Dit LIVE (Promo CDS)
    2007 - Mademoiselle Juliette CD-MAXI
    2007 - Mademoiselle Juliette (Remixes) CD-MAXI Edition Limitee
    2007 - Mademoiselle Juliette (Promo Remixes) CD-MAXI Pt1
    2007 - Mademoiselle Juliette (Promo Remixes) CD-MAXI Pt2
    2008 - Fifty-Sixty (Promo Remixes CD-MAXI Pt1)
    2010 - Les Collines (Promo Remix CDS)

    Аудио. AAC, 246-368 Кбит/с
    Размер. 2.76 ГБ
    Продолжительность. 19:29:27

    • Размер: 2.76 Gb
    • Файлов: 264
    • Сидеры были: 28.06.2016 07:16

    Детальная статистика по трекерам (4)

    Добавление комментария:

    Alizee - 5 альбомов (2000 - 2010) APE, Lossless - Pop - скачать через торрент бесплатно

    Alizee - 5 альбомов (2000 - 2010)

    Кодек: APE
    Битрейт: Lossless Alizee (Alizee Jacotey) - После победы в телевизионном конкурсе «Начинающая звезда» получила предложение от Милен Фармер (Mylene Farmer) и композитора Лоран Бутонна (Laurent Boutonnat), начать вокальную карьеру.
    Первый сингл «Moi… Lolita» и последовавший за ним альбом «Gourmandises» покорили Францию, а позже и всю Европу. Ализе по итогам 2000 года удостаивается премии французской радиостанции «NRJ» в номинации «Открытие года».
    Второй альбом под названием «Mes Courants Electriques» был не менее успешен, чем предыдущий и осенью 2003-го года певица отправляется в первое концертное турне.
    С февраля 2004-го, Ализе берет творческий перерыв, закончившийся в 2007-м году выходом третьего альбома «Psychedelices», который за 4 дня продаж становится золотым.
    В 2008-м, Ализе начинает большое турне, первый концерт которого проходит в Москве.
    В 2010-м году выходит четвертый альбом «Une Enfant Du Siecle» являющийся на данный момент последней студийной работой певицы, но в интервью на телепередаче «Hechos» Ализе сообщила о намерении выпустить пятый альбом весной 2012 года.

    Трек лист:
    01. Moi. Lolita
    02. Lui Ou Toi
    03. L'Alize
    04. J.B.G.
    05. Mon Maquis
    06. Parler Tout Bas
    07. Veni Vedi Vici
    08. Abracadabra
    09. Gourmandises
    10. A Quoi Reve Une Jeune Fille

    Exact Audio Copy V0.99 prebeta 5 from 4. May 2009

    EAC extraction logfile from 13. September 2009, 4:21

    Used drive. MAD DOG MD-16XDVD9A2 Adapter: 3 ID: 0

    Read mode. Secure
    Utilize accurate stream. Yes
    Defeat audio cache. Yes
    Make use of C2 pointers. No

    Read offset correction. 48
    Overread into Lead-In and Lead-Out. No
    Fill up missing offset samples with silence. Yes
    Delete leading and trailing silent blocks. No
    Null samples used in CRC calculations. Yes
    Used interface. Installed external ASPI interface

    Used output format. Internal WAV Routines
    Sample format. 44.100 Hz; 16 Bit; Stereo

    TOC of the extracted CD

    Track | Start | Length | Start sector | End sector
    ---------------------------------------------------------
    1 | 0:00.00 | 4:27.60 | 0 | 20084
    2 | 4:27.60 | 4:18.22 | 20085 | 39456
    3 | 8:46.07 | 4:18.55 | 39457 | 58861
    4 | 13:04.62 | 4:00.18 | 58862 | 76879
    5 | 17:05.05 | 5:44.47 | 76880 | 102726
    6 | 22:49.52 | 4:42.55 | 102727 | 123931
    7 | 27:32.32 | 4:22.10 | 123932 | 143591
    8 | 31:54.42 | 4:08.03 | 143592 | 162194
    9 | 36:02.45 | 4:15.32 | 162195 | 181351
    10 | 40:18.02 | 4:09.05 | 181352 | 200031

    Range status and errors

    Filename E:\TORRENT\Alizee\2000 - Gourmandises\Alizee - Gourmandises.wav

    Peak level 98.8 %
    Range quality 100.0 %
    Test CRC A30F258B
    Copy CRC A30F258B
    Copy OK

    No errors occurred

    Track 1 accurately ripped (confidence 3) [D6DD0841]
    Track 2 accurately ripped (confidence 3) [39841EF5]
    Track 3 accurately ripped (confidence 3) [DEE7D101]
    Track 4 accurately ripped (confidence 3) [F6B6CA04]
    Track 5 accurately ripped (confidence 3) [701841E3]
    Track 6 accurately ripped (confidence 3) [4FA83CE4]
    Track 7 accurately ripped (confidence 3) [17CF59C9]
    Track 8 accurately ripped (confidence 3) [21B7CE6D]
    Track 9 accurately ripped (confidence 3) [B0C99D75]
    Track 10 accurately ripped (confidence 3) [0F04079F]

    All tracks accurately ripped

    End of status report

    DON'T MODIFY THIS FILE

    PERFORMER: auCDtect Task Manager, ver. 1.5.1RC4 build 1.5.1.5
    Copyright (c) 2008-2010 y-soft. All rights reserved
    http:/y-soft.org

    ANALYZER: auCDtect: CD records authenticity detector, version 0.8.2
    Copyright (c) 2004 Oleg Berngardt. All rights reserved.
    Copyright (c) 2004 Alexander Djourik. All rights reserved.

    FILE: Alizee - Gourmandises.ape
    Size: 319200925 Hash: 12DA5892DF8D2FDA4DA6EB3C53A74B8C Accuracy: -m0
    Conclusion: CDDA 100%
    Signature: 1E9EEFDB9BB5E245587CE591876E12092B6FFA3E

    Трек лист:
    01. I'm Fed Up!
    02. A Contre-Courant
    03. Toc De Mac
    04. Amelie
    05. C'Est Trop Tard
    06. Tempete
    07. I'm Not Twenty!
    08. Hey! Amigo!
    09. L'E-mail A Des Ailes
    10. Youpidoo
    11. Coeur deja pris
    12. J'en Ai Marre!
    13. Amelie M'a Dit!
    14. J'ai Pas Vingt Ans!
    15. Youpidou
    16. Moi. Lolita (Bonus Track)

    Exact Audio Copy V0.99 prebeta 5 from 4. May 2009

    EAC extraction logfile from 27. August 2010, 17:30

    Alizee / Mes Courants Electriques (Taiwan)

    Used drive. MAD DOG MD-16XDVD9A2 Adapter: 3 ID: 0

    Read mode. Secure
    Utilize accurate stream. Yes
    Defeat audio cache. Yes
    Make use of C2 pointers. No

    Read offset correction. 48
    Overread into Lead-In and Lead-Out. No
    Fill up missing offset samples with silence. Yes
    Delete leading and trailing silent blocks. No
    Null samples used in CRC calculations. Yes
    Used interface. Installed external ASPI interface

    Used output format. Internal WAV Routines
    Sample format. 44.100 Hz; 16 Bit; Stereo

    TOC of the extracted CD

    Track | Start | Length | Start sector | End sector
    ---------------------------------------------------------
    1 | 0:00.00 | 5:12.17 | 0 | 23416
    2 | 5:12.17 | 4:32.60 | 23417 | 43876
    3 | 9:45.02 | 4:29.63 | 43877 | 64114
    4 | 14:14.65 | 3:51.05 | 64115 | 81444
    5 | 18:05.70 | 4:43.30 | 81445 | 102699
    6 | 22:49.25 | 4:42.35 | 102700 | 123884
    7 | 27:31.60 | 4:23.62 | 123885 | 143671
    8 | 31:55.47 | 3:54.73 | 143672 | 161294
    9 | 35:50.45 | 4:10.20 | 161295 | 180064
    10 | 40:00.65 | 4:09.10 | 180065 | 198749
    11 | 44:10.00 | 4:22.25 | 198750 | 218424
    12 | 48:32.25 | 5:12.17 | 218425 | 241841
    13 | 53:44.42 | 3:51.08 | 241842 | 259174
    14 | 57:35.50 | 4:23.65 | 259175 | 278964
    15 | 61:59.40 | 4:09.10 | 278965 | 297649
    16 | 66:08.50 | 4:24.17 | 297650 | 317466

    Range status and errors

    Filename E:\TORRENT\Alizee - Discography\Albums\2003 - Mes Courants Electriques (Taiwan)\Alizee - Mes Courants Electriques (Taiwan).wav

    Peak level 98.9 %
    Range quality 100.0 %
    Test CRC BF48EAE5
    Copy CRC BF48EAE5
    Copy OK

    No errors occurred

    Track 1 accurately ripped (confidence 4) [05B5F214]
    Track 2 accurately ripped (confidence 5) [DC5DF0D5]
    Track 3 accurately ripped (confidence 5) [D3A9198F]
    Track 4 accurately ripped (confidence 4) [A1827DCD]
    Track 5 accurately ripped (confidence 5) [7A65C821]
    Track 6 accurately ripped (confidence 5) [5B852A55]
    Track 7 accurately ripped (confidence 4) [CD433B09]
    Track 8 accurately ripped (confidence 5) [1662AD2F]
    Track 9 accurately ripped (confidence 5) [F0B01DB9]
    Track 10 accurately ripped (confidence 5) [DC9A09A8]
    Track 11 accurately ripped (confidence 5) [0196FA7F]
    Track 12 accurately ripped (confidence 5) [EC98C747]
    Track 13 accurately ripped (confidence 5) [34144EB1]
    Track 14 accurately ripped (confidence 5) [6BAFAB11]
    Track 15 accurately ripped (confidence 5) [8C261009]
    Track 16 accurately ripped (confidence 5) [F05AEE59]

    All tracks accurately ripped

    End of status report

    DON'T MODIFY THIS FILE

    PERFORMER: auCDtect Task Manager, ver. 1.5.1RC4 build 1.5.1.5
    Copyright (c) 2008-2010 y-soft. All rights reserved
    http:/y-soft.org

    ANALYZER: auCDtect: CD records authenticity detector, version 0.8.2
    Copyright (c) 2004 Oleg Berngardt. All rights reserved.
    Copyright (c) 2004 Alexander Djourik. All rights reserved.

    FILE: Alizee - Mes Courants Electriques (Taiwan Limited Edition).ape
    Size: 517238544 Hash: 3A0317E62B660EDBA486A13BFD7A0640 Accuracy: -m0
    Conclusion: CDDA 100%
    Signature: 04113B4A81DB0E45C06E05734DE8F50883543706

    Трек лист:
    01. Intralizee
    02. L'Alize
    03. Hey! Amigo!
    04. Toc De Mac
    05. J'en Ai Marre!
    06. Lui Ou Toi
    07. Gourmandises
    08. Mon Maquis
    09. J.B.G.
    10. Moi. Lolita
    11. Amelie M'a Dit
    12. Parler Tout Bas
    13. C'est Trop Tard
    14. Youpidou
    15. Tempete
    16. A Contre-Courant

    Exact Audio Copy V0.99 prebeta 5 from 4. May 2009

    EAC extraction logfile from 13. September 2009, 15:09

    Alizйe / Alizйe en concert

    Used drive. MAD DOG MD-16XDVD9A2 Adapter: 3 ID: 0

    Read mode. Secure
    Utilize accurate stream. Yes
    Defeat audio cache. Yes
    Make use of C2 pointers. No

    Read offset correction. 48
    Overread into Lead-In and Lead-Out. No
    Fill up missing offset samples with silence. Yes
    Delete leading and trailing silent blocks. No
    Null samples used in CRC calculations. Yes
    Used interface. Installed external ASPI interface

    Used output format. Internal WAV Routines
    Sample format. 44.100 Hz; 16 Bit; Stereo

    TOC of the extracted CD

    Track | Start | Length | Start sector | End sector
    ---------------------------------------------------------
    1 | 0:00.00 | 1:48.70 | 0 | 8169
    2 | 1:48.70 | 4:40.35 | 8170 | 29204
    3 | 6:29.30 | 3:53.17 | 29205 | 46696
    4 | 10:22.47 | 4:28.00 | 46697 | 66796
    5 | 14:50.47 | 5:44.03 | 66797 | 92599
    6 | 20:34.50 | 4:18.60 | 92600 | 112009
    7 | 24:53.35 | 4:23.52 | 112010 | 131786
    8 | 29:17.12 | 4:52.45 | 131787 | 153731
    9 | 34:09.57 | 3:28.20 | 153732 | 169351
    10 | 37:38.02 | 5:50.23 | 169352 | 195624
    11 | 43:28.25 | 3:51.07 | 195625 | 212956
    12 | 47:19.32 | 5:19.40 | 212957 | 236921
    13 | 52:38.72 | 4:21.50 | 236922 | 256546
    14 | 57:00.47 | 4:15.58 | 256547 | 275729
    15 | 61:16.30 | 4:42.42 | 275730 | 296921
    16 | 65:58.72 | 7:27.25 | 296922 | 330471

    Range status and errors

    Filename E:\TORRENT\Alizee\2004 - Alizee En Concert\Alizйe - Alizйe en concert.wav

    Peak level 98.8 %
    Range quality 100.0 %
    Test CRC D3F99CA1
    Copy CRC D3F99CA1
    Copy OK

    No errors occurred

    Track 1 accurately ripped (confidence 6) [FE9BA17D]
    Track 2 accurately ripped (confidence 6) [197C5ECD]
    Track 3 accurately ripped (confidence 6) [13BCDBE1]
    Track 4 accurately ripped (confidence 6) [CB99E6F5]
    Track 5 accurately ripped (confidence 6) [4EE83FCE]
    Track 6 accurately ripped (confidence 6) [0D8C9AF2]
    Track 7 accurately ripped (confidence 6) [08748633]
    Track 8 accurately ripped (confidence 6) [0B843DC5]
    Track 9 accurately ripped (confidence 6) [8B03F837]
    Track 10 accurately ripped (confidence 6) [1760067C]
    Track 11 accurately ripped (confidence 6) [79FBBABF]
    Track 12 accurately ripped (confidence 6) [1CA4024F]
    Track 13 accurately ripped (confidence 5) [4B2890E2]
    Track 14 accurately ripped (confidence 6) [9EB23CDD]
    Track 15 accurately ripped (confidence 6) [1E21BB4B]
    Track 16 accurately ripped (confidence 5) [D346EB43]

    All tracks accurately ripped

    End of status report

    DON'T MODIFY THIS FILE

    PERFORMER: auCDtect Task Manager, ver. 1.5.1RC4 build 1.5.1.5
    Copyright (c) 2008-2010 y-soft. All rights reserved
    http:/y-soft.org

    ANALYZER: auCDtect: CD records authenticity detector, version 0.8.2
    Copyright (c) 2004 Oleg Berngardt. All rights reserved.
    Copyright (c) 2004 Alexander Djourik. All rights reserved.

    FILE: Alizee - Alizee en concert.ape
    Size: 562156370 Hash: 9A1D0E86EC4DEA0FE75C8DC4D7EA91A1 Accuracy: -m0
    Conclusion: CDDA 100%
    Signature: F29A671C25DF9DB7002CD83A44349438CD836DB4

    Трек лист:
    01. Mademoiselle Juliette
    02. Fifty Sixty
    03. Mon Taxi Driver
    04. Jamais Plus
    05. Psychedelices
    06. Decollage
    07. Par Les Paupieres
    08. Lilly Town
    09. Lonely List
    10. Idealiser
    11. L'effet
    Bonus Tracks:
    12. La Isla Bonita
    13. Fifty Sixty (Rolf Honey Edit Remix)
    14. Mademoiselle Juliette (Datsu Remix)
    15. Fifty Sixty (Edana Remix)

    Exact Audio Copy V0.99 prebeta 5 from 4. May 2009

    EAC extraction logfile from 26. November 2009, 23:31

    Alizee / Psychedelices (Mexican Tour Edition)

    Used drive. MAD DOG MD-16XDVD9A2 Adapter: 3 ID: 0

    Read mode. Secure
    Utilize accurate stream. Yes
    Defeat audio cache. Yes
    Make use of C2 pointers. No

    Read offset correction. 48
    Overread into Lead-In and Lead-Out. No
    Fill up missing offset samples with silence. Yes
    Delete leading and trailing silent blocks. No
    Null samples used in CRC calculations. Yes
    Used interface. Installed external ASPI interface

    Used output format. Internal WAV Routines
    Sample format. 44.100 Hz; 16 Bit; Stereo

    TOC of the extracted CD

    Track | Start | Length | Start sector | End sector
    ---------------------------------------------------------
    1 | 0:00.00 | 3:02.54 | 0 | 13703
    2 | 3:02.54 | 3:45.72 | 13704 | 30650
    3 | 6:48.51 | 3:11.36 | 30651 | 45011
    4 | 10:00.12 | 3:28.64 | 45012 | 60675
    5 | 13:29.01 | 4:37.65 | 60676 | 81515
    6 | 18:06.66 | 3:52.66 | 81516 | 98981
    7 | 21:59.57 | 4:29.33 | 98982 | 119189
    8 | 26:29.15 | 3:57.45 | 119190 | 137009
    9 | 30:26.60 | 3:55.30 | 137010 | 154664
    10 | 34:22.15 | 4:00.14 | 154665 | 172678
    11 | 38:22.29 | 3:46.47 | 172679 | 189675
    12 | 42:09.01 | 3:42.45 | 189676 | 206370
    13 | 45:51.46 | 3:28.21 | 206371 | 221991
    14 | 49:19.67 | 3:28.20 | 221992 | 237611
    15 | 52:48.12 | 3:26.35 | 237612 | 253096

    Range status and errors

    Filename E:\TORRENT\Celine Dion\2008 - My Love - Ultimate Essential Collection US (2CD)\CD1\Alizee - Psychedelices (Mexican Tour Edition).wav

    Peak level 100.0 %
    Range quality 100.0 %
    Test CRC 7692E58A
    Copy CRC 7692E58A
    Copy OK

    No errors occurred

    Track 1 not present in database
    Track 2 not present in database
    Track 3 not present in database
    Track 4 not present in database
    Track 5 not present in database
    Track 6 not present in database
    Track 7 not present in database
    Track 8 not present in database
    Track 9 not present in database
    Track 10 not present in database
    Track 11 not present in database
    Track 12 accurately ripped (confidence 1) [BF630405]
    Track 13 accurately ripped (confidence 1) [260728F1]
    Track 14 accurately ripped (confidence 1) [F1CCFD8B]
    Track 15 accurately ripped (confidence 1) [147F1DAC]

    4 track(s) accurately ripped
    11 track(s) not present in the AccurateRip database

    Some tracks could not be verified as accurate

    End of status report

    DON'T MODIFY THIS FILE

    PERFORMER: auCDtect Task Manager, ver. 1.5.1RC4 build 1.5.1.5
    Copyright (c) 2008-2010 y-soft. All rights reserved
    http:/y-soft.org

    ANALYZER: auCDtect: CD records authenticity detector, version 0.8.2
    Copyright (c) 2004 Oleg Berngardt. All rights reserved.
    Copyright (c) 2004 Alexander Djourik. All rights reserved.

    FILE: Alizee - Psychedelices (Mexican Tour Edition).ape
    Size: 378278198 Hash: 40B8F736A1644920F9E15EC2038B3967 Accuracy: -m0
    Conclusion: CDDA 100%
    Signature: 6802F64500CC00C74DF473FD3C98A80AB7B6E9CE

    Трек лист:
    01. Eden, Eden
    02. Grand Central
    03. Limelight
    04. La Candida
    05. Les Collines (Never Leave You)
    06. 14 Decembre
    07. A Coeur Fendre
    08. Factory Girl
    09. Une Fille Difficile
    10. Mes Fantomes

    Exact Audio Copy V0.99 prebeta 5 from 4. May 2009

    EAC extraction logfile from 6. July 2010, 20:58

    Alizee / Une enfant du siecle

    Used drive. MAD DOG MD-16XDVD9A2 Adapter: 3 ID: 0

    Read mode. Secure
    Utilize accurate stream. Yes
    Defeat audio cache. Yes
    Make use of C2 pointers. No

    Read offset correction. 48
    Overread into Lead-In and Lead-Out. No
    Fill up missing offset samples with silence. Yes
    Delete leading and trailing silent blocks. No
    Null samples used in CRC calculations. Yes
    Used interface. Installed external ASPI interface

    Used output format. Internal WAV Routines
    Sample format. 44.100 Hz; 16 Bit; Stereo

    TOC of the extracted CD

    Track | Start | Length | Start sector | End sector
    ---------------------------------------------------------
    1 | 0:00.00 | 4:22.02 | 0 | 19651
    2 | 4:22.02 | 3:24.34 | 19652 | 34985
    3 | 7:46.36 | 5:18.06 | 34986 | 58841
    4 | 13:04.42 | 2:15.00 | 58842 | 68966
    5 | 15:19.42 | 3:43.71 | 68967 | 85762
    6 | 19:03.38 | 3:18.60 | 85763 | 100672
    7 | 22:22.23 | 3:07.27 | 100673 | 114724
    8 | 25:29.50 | 4:11.67 | 114725 | 133616
    9 | 29:41.42 | 3:41.27 | 133617 | 150218
    10 | 33:22.69 | 3:16.58 | 150219 | 164976

    Range status and errors

    Filename E:\TORRENT\Alizee - Discography\Albums\2010 - Une enfant du siecle\Alizee - Une enfant du siecle.wav

    Peak level 100.0 %
    Range quality 99.9 %
    Test CRC B8E23CD5
    Copy CRC B8E23CD5
    Copy OK

    No errors occurred

    Track 1 cannot be verified as accurate (confidence 4) [EF905AFB], AccurateRip returned [11BD3D19]
    Track 2 cannot be verified as accurate (confidence 4) [1584B460], AccurateRip returned [DE7363D6]
    Track 3 cannot be verified as accurate (confidence 4) [DF268B65], AccurateRip returned [46AE9655]
    Track 4 cannot be verified as accurate (confidence 4) [B662DBCF], AccurateRip returned [BD20179C]
    Track 5 cannot be verified as accurate (confidence 4) [8CB33682], AccurateRip returned [7E21B99E]
    Track 6 cannot be verified as accurate (confidence 5) [EE991712], AccurateRip returned [14E97A8B]
    Track 7 cannot be verified as accurate (confidence 4) [A4DCD8D0], AccurateRip returned [1676C9DE]
    Track 8 cannot be verified as accurate (confidence 4) [FBA2FB27], AccurateRip returned [079D6251]
    Track 9 cannot be verified as accurate (confidence 4) [7C7DBF14], AccurateRip returned [6AA70580]
    Track 10 cannot be verified as accurate (confidence 4) [C8D0BE16], AccurateRip returned [26D186B2]

    No tracks could be verified as accurate
    You may have a different pressing from the one(s) in the database

    End of status report

    DON'T MODIFY THIS FILE

    PERFORMER: auCDtect Task Manager, ver. 1.5.1RC4 build 1.5.1.5
    Copyright (c) 2008-2010 y-soft. All rights reserved
    http:/y-soft.org

    ANALYZER: auCDtect: CD records authenticity detector, version 0.8.2
    Copyright (c) 2004 Oleg Berngardt. All rights reserved.
    Copyright (c) 2004 Alexander Djourik. All rights reserved.

    FILE: Alizee - Une enfant du siecle.ape
    Size: 246892107 Hash: 18A4369B0811524399F22C0EAE30BB3B Accuracy: -m0
    Conclusion: CDDA 99%
    Signature: 3A28AE44171D020376AE1677849F698CAB1AC31A

    Время раздачи: С 17:00 до 08:00 Мск. до 5-ти скачавших