File-Portal

менты 1 скачать торрент

Рейтинг: 4.3/5.0 (1030 проголосовавших)

Категория: Торрент-файлы

Описание

Скачать сериалы Улицы разбитых фонарей

Улицы разбитых фонарей. Менты 1 (31 серия). (Александр Рогожкин, Евгений Татарский, Кирилл Капица и др) [1997, Детектив]

Улицы разбитых фонарей. Менты 1 (31 серия)

Перевод: Не требуется, cубтитры: отсутствуют

Формат: DVDRip, AVI, DivX, MP3

Режиссер: Александр Рогожкин, Евгений Татарский, Кирилл Капица, Андрей Щепочкин, Виктор Бутурлин, Игорь Москвитин и др

Продолжительность: 31 серия по 55 минут

Год выпуска: 1997

В ролях: Александр Лыков, Александр Половцев, Сергей Селин, Кира Крейлис, Семен Фурман, Николай Трофимов, Михаил Светин, Александр Кавалеров, Анатолий Равикович, Михаил Девяткин и другие.

Описание: По мотивам повестей Андрея Кивинова. Сериал рассказывает о рабочих буднях 85-го отделения петербургской милиции. Главные герои, рядовые «сыскари» Казанова, Ларин, Дукалис и Волков в корне отличаются от рыцарей без страха и упрека советских времен, которых воплощали на экране Збруев, Соломин, Кикабидзе, Мартынюк и другие. Современные следователи выглядят как множество простых россиян: у них не модельная внешность, отнюдь не атлетическое телосложение, они довольно скромно одеты; они разъезжают по городу на общественном транспорте и ведут свои расследования в обшарпанных кабинетах без компьютеров и радиотелефонов, часто применяя недозволенные методы в работе, а порой и нарушая букву закона. Одним словом, настоящие «менты»…

01-Серия Кошмар на улице С.

03-Серия Напиток для настоящих мужчин

04-Серия Испорченный телефон

05-Серия Высокое напряжение

06-Серия Инстинкт мотылька

07-Серия Страховочный вариант

08-Серия Петербургский презент

09-Серия Охота на крыс

10-Серия Моль бледная

11-Серия Дело репортера

13-Серия Отсутствие доказательств

14-Серия Блюз осеннего вечера

16-Серия Вторжение в частную жизнь

18-Серия Сексот цыплаков

19-Серия Темное пиво или урок английского

20-Серия Третий слева

22-Серия Обнесенные ветром

23-Серия Танцы на льду

24-Серия Чарующие сны

25-Серия Операция Чистые руки часть 1

26-Серия Операция Чистые руки часть 2

27-Серия Многая лета

28-Серия Лекарство от скуки

29-Серия Погоня за призраком

31-Серия Женское счастье

Рейтинг на IMDB: -

Видео: 720х432, 25 fps, DivX Codec 5.x , 787 Kbps

Аудио: 44.100 kHz, MPEG Layer 3, 2 ch, 128 kbps

Менты 1 Торрент:

  • скачать
  • скачать
  • Другие статьи

    Скачать торрент Улицы разбитых фонарей

    MegaTorrents - Безрейтинговый Bittorent Трекер

    Менты 1 скачать торрент

    Улицы разбитых фонарей. 1 Сезон (1998) [Детектив] <1-31 серии>DVDRip

    Популярный телесериал про работу уголовного розыска по мотивам детективов известного петербургского беллетриста (и сыщика с десятилетним стажем) Андрея Кивинова. Сериал рассказывает о рабочих буднях 85-го отделения петербургской милиции. Загадочные убийства, похищения, жестокие преступления без свидетелей… Самые запутанные дела расследует команда петербургской милиции - Казанова, Ларин, Дукалис, Волков, Соловец. Даже на самых опасных заданиях менты никогда не теряют чувства юмора. Именно оно помогает им находить самые невероятные выходы из любых ситуаций. С каждым днём их задания становятся всё опаснее, а шутки смешнее.

    Год выпуска: 1998

    В ролях: Александр Лыков . Казанцев, Александр Половцев . Соловец, Юрий Кузнецов . "Мухомор", Алексей Нилов . Ларин, Михаил Трухин . Волков, Сергей Селин . Дукалис

    Видео: DivX, 720х432, 780 Кбит/сек

    Аудио: MP3 2ch, 128 Кбит/сек

    Менты 1 скачать торрент

    Менты 1 скачать торрент

    Интересное Информация Список комментариев

    Всего 1 на 1 страницах по 10 на каждой странице.

    Предупреждение! Информация, расположенная на данном сервере, предназначена исключительно для частного использования в образовательных целях и не может быть загружена/перенесена на другой компьютер. Ни владелец сайта, ни хостинг-провайдер, ни любые другие физические или юридические лица не могут нести никакой отвественности за любое использование материалов данного сайта.

    Входя на сайт, Вы, как пользователь, тем самым подтверждаете полное и безоговорочное согласие со всеми условиями использования. Авторы проекта относятся особо негативно к нелегальному использованию информации, полученной на сайте.

    No files you see here are hosted on the server. Links available are provided by site users and administation is not responsible for them. It is strictly prohibited to upload any copyrighted material without explicit permission from copyright holders. If you find that some content is abusing you feel free to contact administation.

    Улицы разбитых фонарей 1-6 (менты 1-6)

    Улицы разбитых фонарей 1-6 (менты 1-6) / полные 6 сезонов, 161 серия [1998-2004, Александр Рогожкин и др., DVDRip] - скачать торрент

    Добавлено: 13 мар 2012, 15:46

    Менты 1 скачать торрент

    08 апр 2010, 18:00

    Менты 1 скачать торрент

    Режиссёр: Александр Рогожкин и др.

    Александр Лыков . Казанцев

    Юрий Кузнецов . "Мухомор"

    Алексей Нилов . Ларин

    Сергей Селин . Дукалис

    Видео: 720x432 (1.67:1), 25 fps, DivX Codec 5.x or 6.x

    780 kbps avg, 0.10 bit/pixel

    Аудио: 48 kHz, MPEG Layer 3, 2 ch,

    Полное имя : D:\Programms\uTorrent 1.75\Complete\Menti\Menti-1\Серия 01.avi

    Формат/Информация : Audio Video Interleave

    Размер файла : 390 Мбайт

    Продолжительность : 59 м.

    Общий поток : 916 Кбит/сек

    Программа кодирования : VirtualDubMod 1.5.4.1 (build 2178/release)

    Библиотека кодирования : VirtualDubMod build 2178/release

    Формат : MPEG-4 Visual

    Параметр BVOP формата : 1

    Параметр QPel формата : Нет

    Параметр GMC формата : Без точки перехода

    Параметр матрицы формата : Default (H.263)

    Режим смешивания : Сжатый битовый поток

    Идентификатор кодека : DX50

    Идентификатор кодека/Подсказка : DivX 5

    Продолжительность : 59 м.

    Битрейт : 780 Кбит/сек

    Ширина : 720 пикселей

    Высота : 432 пикселя

    Соотношение сторон : 1,667

    Частота кадров : 25,000 кадров/сек

    Цветовое пространство : YUV

    Субдискретизация насыщенности : 4:2:0

    Битовая глубина : 8 бит

    Тип развёртки : Прогрессивная

    Метод сжатия : С потерями

    Размер потока : 332 Мбайт (85%)

    Библиотека кодирования : DivX 6.1.1 (UTC 2006-02-01)

    Формат : MPEG Audio

    Версия формата : Version 1

    Профиль формата : Layer 3

    Режим : Joint stereo

    Расширение режима : MS Stereo

    Идентификатор кодека : 55

    Идентификатор кодека/Подсказка : MP3

    Продолжительность : 59 м.

    Вид битрейта : Постоянный

    Битрейт : 128 Кбит/сек

    Каналы : 2 канала

    Частота : 48,0 КГц

    Метод сжатия : С потерями

    Размер потока : 54,5 Мбайт (14%)

    Выравнивание : Соединение по промежуткам

    Продолжительность промежутка : 80 мс. (2,00 видеокадра)

    Время предзагрузки промежутка : 504 мс.

    1. «Кошмар на улице С.» (1997) — по повести Андрея Кивинова «Кошмар на улице Стачек»

    2. «Попутчики» (1997) — по одноимённой повести Андрея Кивинова

    3. «Инферно» (1997) — по одноимённой повести Андрея Кивинова

    4. «Целую, Ларин» (1997) — по одноимённой повести Андрея Кивинова

    5. «Сексот Цыплаков» (1997) — по повести Андрея Кивинова «Полное блюдце секретов»

    6. «Темное пиво, или урок английского» (1997) — по повести Андрея Кивинова «Полное блюдце секретов»

    7. «Третий слева» (1998) — по повести Андрея Кивинова «Полное блюдце секретов»

    8. «Блюз осеннего вечера» (1998) — по одноимённой повести Андрея Кивинова

    9. «Испорченный телефон» (1998)

    10. «Страховочный вариант» (1998) — по одноимённой повести Андрея Кивинова

    11. «Отсутствие доказательств» (1998) — по одноимённой повести Андрея Кивинова

    12. «Напиток для настоящих мужчин» (1998)

    13. «Операция „Чистые руки“», 1-я часть (1998) — по повести Андрея Кивинова «Дублёр»

    14. «Операция „Чистые руки“», 2-я часть (1998) — по повести Андрея Кивинова «Дублёр»

    15. «Высокое напряжение» (1998) — по одноимённой повести Андрея Кивинова

    16. «Вторжение в частную жизнь» (1998) — по одноимённой повести Андрея Кивинова

    17. «Танцы на льду» (1998) — по одноимённой повести Андрея Кивинова

    18. «Петербургский презент» (1998) — по одноимённой повести Андрея Кивинова

    19. «Инстинкт мотылька» (1998)

    20. «Дело репортёра» (1998)

    21. «Подставка» (1998)

    22. «Ля-ля-фа» (1998) — по одноимённой повести Андрея Кивинова

    23. «Охота на крыс» (1998) — по одноимённой повести Андрея Кивинова

    24. «Чарующие сны» (1998) — по одноимённой повести Андрея Кивинова

    25. «Моль бледная» (1998)

    26. «Обнесённые Ветром» (1998) — по одноименной повести Андрея Кивинова

    27. «Многая лета» (1998)

    28. «Лекарство от скуки» (1998)

    29. «Погоня за призраком» (1998) — по сценарию Андрея Кивинова

    30. «Куколка» (1998) — по одноимённой повести Андрея Кивинова

    31. «Женское счастье» (1998)

    32. «Дело № 1999», 1-я часть (1998)

    33. «Дело № 1999», 2-я часть (1998)

    Видео: 640x384 (1.67:1), 25 fps, XviD build 47

    1265 kbps avg, 0.21 bit/pixel

    Аудио: 48 kHz, MPEG Layer 3, 2 ch,

    Полное имя : D:\Programms\uTorrent 1.75\Complete\Menti\Menti-2\Серия 01.avi

    Формат/Информация : Audio Video Interleave

    Размер файла : 500 Мбайт

    Продолжительность : 48 м.

    Общий поток : 1446 Кбит/сек

    Программа кодирования : VirtualDubMod 1.5.4.1 (build 2178/release)

    Библиотека кодирования : VirtualDubMod build 2178/release

    Формат : MPEG-4 Visual

    Профиль формата : Advanced Simple@L5

    Параметр BVOP формата : 1

    Параметр QPel формата : Нет

    Параметр GMC формата : Без точки перехода

    Параметр матрицы формата : Выборочная

    Идентификатор кодека : XVID

    Идентификатор кодека/Подсказка : XviD

    Продолжительность : 48 м.

    Битрейт : 1311 Кбит/сек

    Ширина : 640 пикселей

    Высота : 384 пикселя

    Соотношение сторон : 1,667

    Частота кадров : 25,000 кадров/сек

    Цветовое пространство : YUV

    Субдискретизация насыщенности : 4:2:0

    Битовая глубина : 8 бит

    Тип развёртки : Прогрессивная

    Метод сжатия : С потерями

    Размер потока : 453 Мбайт (91%)

    Библиотека кодирования : XviD 1.2.0.dev47 (UTC 2006-11-01)

    Формат : MPEG Audio

    Версия формата : Version 1

    Профиль формата : Layer 3

    Режим : Joint stereo

    Расширение режима : MS Stereo

    Идентификатор кодека : 55

    Идентификатор кодека/Подсказка : MP3

    Продолжительность : 48 м.

    Вид битрейта : Постоянный

    Битрейт : 128 Кбит/сек

    Каналы : 2 канала

    Частота : 48,0 КГц

    Метод сжатия : С потерями

    Размер потока : 44,2 Мбайт (9%)

    Выравнивание : Соединение по промежуткам

    Продолжительность промежутка : 80 мс. (2,00 видеокадра)

    Время предзагрузки промежутка : 504 мс.

    Библиотека кодирования : LAME3.97

    Настройки программы : -m j -V 4 -q 2 -lowpass 17 -b 128

    1. «Аварийная защита» (1998) — по повести Андрея Кивинова «Мент обречённый»

    2. «Ищу работу с риском» (1998) — по повести Андрея Кивинова «Сделано из отходов»

    3. «Контрабас» (1999)

    4. «Визит к доктору» (1999)

    5. «Трубка фирмы Данхилл» (1999)

    6. «Новое слово в живописи» (1999)

    7. «Королева красоты» (1999)

    8. «Дама с собакой» (1999)

    9. «Шла Саша по шоссе» (1999)

    10. «Дело чести» (1999)

    11. «Любовный напиток» (1999)

    12. «Сердечная недостаточность» (1999)

    13. «Смерть на пляже» (1999)

    14. «Всё это рок-н-ролл» (1999)

    15. «Отпуск для героев», 1-я часть (1999)

    16. «Отпуск для героев», 2-я часть (1999)

    17. «Школа паука» (1999)

    18. «Ловушка для „Мамонта“» (1999)

    19. «Огонь на опережение» (1999)

    20. «Раритет» (1999)

    21. «Честное пионерское» (1999)

    22. «Рождество» (1999)

    23. «Собака Сталина» (1999)

    24. «Заказчик» (1999)

    Видео: 624x368 (1.70:1), 25 fps, XviD MPEG-4

    1250 kbps avg, 0.22 bit/pixel

    Аудио: 48 kHz, MPEG Layer 3, 2 ch,

    Полное имя : D:\Programms\uTorrent 1.75\Complete\Menti\Menti-3\Серия 01.avi

    Формат/Информация : Audio Video Interleave

    Размер файла : 490 Мбайт

    Продолжительность : 50 м.

    Общий поток : 1345 Кбит/сек

    Программа кодирования : FairUse Wizard - http://fairusewizard.com

    Библиотека кодирования : The best and REALLY easy backup tool

    Формат : MPEG-4 Visual

    Профиль формата : Advanced Simple@L5

    Параметр BVOP формата : 1

    Параметр QPel формата : Нет

    Параметр GMC формата : Без точки перехода

    Параметр матрицы формата : Default (MPEG)

    Режим смешивания : Сжатый битовый поток

    Идентификатор кодека : XVID

    Идентификатор кодека/Подсказка : XviD

    Продолжительность : 50 м.

    Битрейт : 1207 Кбит/сек

    Ширина : 624 пикселя

    Высота : 368 пикселей

    Соотношение сторон : 1,696

    Частота кадров : 25,000 кадров/сек

    Цветовое пространство : YUV

    Субдискретизация насыщенности : 4:2:0

    Битовая глубина : 8 бит

    Тип развёртки : Прогрессивная

    Метод сжатия : С потерями

    Размер потока : 440 Мбайт (90%)

    Библиотека кодирования : XviD 1.2.0.dev47 (UTC 2006-11-01)

    Формат : MPEG Audio

    Версия формата : Version 1

    Профиль формата : Layer 3

    Режим : Joint stereo

    Расширение режима : MS Stereo

    Идентификатор кодека : 55

    Идентификатор кодека/Подсказка : MP3

    Продолжительность : 50 м.

    Вид битрейта : Постоянный

    Битрейт : 128 Кбит/сек

    Каналы : 2 канала

    Частота : 48,0 КГц

    Метод сжатия : С потерями

    Размер потока : 46,6 Мбайт (10%)

    Выравнивание : Соединение по промежуткам

    Продолжительность промежутка : 40 мс. (1,00 видеокадр)

    Время предзагрузки промежутка : 504 мс.

    Библиотека кодирования : LAME3.97b

    Настройки программы : -m j -V 4 -q 2 -lowpass 17 -b 128

    1. «Врачебная тайна» (2000)

    2. «Человек со шрамом» (2000)

    4. «Макароны по-скотски» (2000)

    5. «Труп из зоопарка» (2000)

    6. «Добрая память» (2000)

    7. «Он один из нас» (2000)

    8. «Сорок лет до. возмездия?!» (2000)

    10. «Необоснованное применение» (2000)

    11. «Прощай, обезьяна, или Призрак опера», 1-я часть (2000)

    12. «Прощай, обезьяна, или Призрак опера», 2-я часть (2000)

    13. «Убийство под музыку» (2001)

    14. «Новые веяния» (2001)

    15. «Чёрная метка» (2001)

    16. «Домовой» (2001)

    17. «Шалом, менты!», 1-я часть (2001)

    18. «Шалом, менты!», 2-я часть (2001)

    19. «Не пожелаю зла» (2001)

    20. «Снежный барс» (2001)

    21. «Звёздная болезнь» (2001)

    22. «Эхо блокады» (2001)

    23. «Исчезновение» (2001)

    24. «Парень из нашего города», 1-я часть (2001)

    25. «Парень из нашего города», 2-я часть (2001)

    26. «Кошки-мышки» (2001)

    Видео: 624x368 (1.70:1), 25 fps, XviD MPEG-4

    1243 kbps avg, 0.22 bit/pixel

    Аудио: 48 kHz, MPEG Layer 3, 2 ch,

    Полное имя : D:\Programms\uTorrent 1.75\Complete\Menti\Menti-4\Серия 01.avi

    Формат/Информация : Audio Video Interleave

    Размер файла : 499 Мбайт

    Продолжительность : 50 м.

    Общий поток : 1387 Кбит/сек

    Программа кодирования : FairUse Wizard - http://fairusewizard.com

    Библиотека кодирования : The best and REALLY easy backup tool

    Формат : MPEG-4 Visual

    Профиль формата : Advanced Simple@L5

    Параметр BVOP формата : 1

    Параметр QPel формата : Нет

    Параметр GMC формата : Без точки перехода

    Параметр матрицы формата : Default (MPEG)

    Режим смешивания : Сжатый битовый поток

    Идентификатор кодека : XVID

    Идентификатор кодека/Подсказка : XviD

    Продолжительность : 50 м.

    Битрейт : 1249 Кбит/сек

    Ширина : 624 пикселя

    Высота : 368 пикселей

    Соотношение сторон : 1,696

    Частота кадров : 25,000 кадров/сек

    Цветовое пространство : YUV

    Субдискретизация насыщенности : 4:2:0

    Битовая глубина : 8 бит

    Тип развёртки : Прогрессивная

    Метод сжатия : С потерями

    Размер потока : 450 Мбайт (90%)

    Библиотека кодирования : XviD 1.2.0.dev47 (UTC 2006-11-01)

    Формат : MPEG Audio

    Версия формата : Version 1

    Профиль формата : Layer 3

    Режим : Joint stereo

    Расширение режима : MS Stereo

    Идентификатор кодека : 55

    Идентификатор кодека/Подсказка : MP3

    Продолжительность : 50 м.

    Вид битрейта : Постоянный

    Битрейт : 128 Кбит/сек

    Каналы : 2 канала

    Частота : 48,0 КГц

    Метод сжатия : С потерями

    Размер потока : 46,1 Мбайт (9%)

    Выравнивание : Соединение по промежуткам

    Продолжительность промежутка : 40 мс. (1,00 видеокадр)

    Время предзагрузки промежутка : 504 мс.

    Библиотека кодирования : LAME3.97b

    Настройки программы : -m j -V 4 -q 2 -lowpass 17 -b 128

    1. «Знак судьбы» (2001)

    2. «У каждого в шкафу свой скелет», 1-я часть (2001)

    3. «У каждого в шкафу свой скелет», 2-я часть (2001)

    4. «Королева бензоколонок» (2001)

    5. «На улице Марата», 1-я часть (2002)

    6. «На улице Марата», 2-я часть (2002)

    7. «Лобовая атака», 1-я часть (2002)

    8. «Лобовая атака», 2-я часть (2002)

    9. «Пятая власть» (2002)

    10. «Мягкий приговор» (2002)

    11. «Долго и счастливо» (2002)

    12. «Везёт же людям!» (2002)

    13. «Сальдо-бульдо», 1-я часть (2002)

    14. «Сальдо-бульдо», 2-я часть (2002)

    15. «Настройщик» (2002)

    16. «Выстрел в спину» (2002)

    17. «Отцы и дети», 1-я часть

    18. «Отцы и дети», 2-я часть

    20. «Смертельная болезнь» (2002)

    21. «Бабочка», 1 часть (2002)

    22. «Бабочка», 2 часть (2002)

    23. «Морские волки» (2002)

    24. «Стриптиз по-тайски» (2002)

    25. «Воронья слободка» (2002)

    26. «Тонкости бизнеса» (2002)

    Видео: 624x368 (1.70:1), 25 fps, XviD MPEG-4

    1211 kbps avg, 0.21 bit/pixel

    Полное имя : D:\Programms\uTorrent 1.75\Complete\Menti\Menti-5\Серия 01.avi

    Формат/Информация : Audio Video Interleave

    Размер файла : 499 Мбайт

    Продолжительность : 50 м.

    Общий поток : 1392 Кбит/сек

    Программа кодирования : FairUse Wizard - http://fairusewizard.com

    Библиотека кодирования : The best and REALLY easy backup tool

    Формат : MPEG-4 Visual

    Профиль формата : Advanced Simple@L5

    Параметр BVOP формата : 1

    Параметр QPel формата : Нет

    Параметр GMC формата : Без точки перехода

    Параметр матрицы формата : Default (MPEG)

    Режим смешивания : Сжатый битовый поток

    Идентификатор кодека : XVID

    Идентификатор кодека/Подсказка : XviD

    Продолжительность : 50 м.

    Битрейт : 1254 Кбит/сек

    Ширина : 624 пикселя

    Высота : 368 пикселей

    Соотношение сторон : 1,696

    Частота кадров : 25,000 кадров/сек

    Цветовое пространство : YUV

    Субдискретизация насыщенности : 4:2:0

    Битовая глубина : 8 бит

    Тип развёртки : Прогрессивная

    Метод сжатия : С потерями

    Размер потока : 450 Мбайт (90%)

    Библиотека кодирования : XviD 1.2.0.dev47 (UTC 2006-11-01)

    Формат : MPEG Audio

    Версия формата : Version 1

    Профиль формата : Layer 3

    Режим : Joint stereo

    Расширение режима : MS Stereo

    Идентификатор кодека : 55

    Идентификатор кодека/Подсказка : MP3

    Продолжительность : 50 м.

    Вид битрейта : Постоянный

    Битрейт : 128 Кбит/сек

    Каналы : 2 канала

    Частота : 48,0 КГц

    Метод сжатия : С потерями

    Размер потока : 45,9 Мбайт (9%)

    Выравнивание : Соединение по промежуткам

    Продолжительность промежутка : 40 мс. (1,00 видеокадр)

    Время предзагрузки промежутка : 504 мс.

    Библиотека кодирования : LAME3.97b

    Настройки программы : -m j -V 4 -q 2 -lowpass 17 -b 128

    1. «Дамоклов меч» (2003)

    2. «Лохотрон» (2003)

    3. «Охота на „крокодила“», 1-я часть (2003)

    4. «Охота на „крокодила“», 2-я часть (2003)

    5. «Живая рыба» (2003)

    6. «Дезинфекция» (2003)

    7. «Альбом великого поэта» (2003)

    8. «Герой дня» (2003)

    9. «Крымский серпантин», 1-я часть (2003)

    10. «Крымский серпантин», 2-я часть (2003)

    11. «Наследница» (2003)

    12. «Собачий промысел» (2003)

    13. «Налог на убийство» (2003)

    14. «Свежая кровь» (2003)

    15. «Белый карлик» (2003)

    16. «Марш Мендельсона» (2003)

    17. «Бывший», 1-я часть (2003)

    18. «Бывший», 2-я часть (2003)

    19. «Крайние обстоятельства» (2003)

    20. «Под сенью девушек в цвету» (2003)

    21. «Последний урок» (2003)

    22. «Золотая банка» (2003)

    23. «День всех дураков» (2003)

    24. «Самородок» (2003)

    25. «Удача по прозвищу Пруха» (2003)

    26. «Горячие головы» (2004)

    Видео: 624x368 (1.70:1), 25 fps, XviD MPEG-4

    1263 kbps avg, 0.22 bit/pixel

    Аудио: 48 kHz, MPEG Layer 3, 2 ch,

    Полное имя : D:\Programms\uTorrent 1.75\Complete\Menti\Menti-6\Серия 01.avi

    Формат/Информация : Audio Video Interleave

    Размер файла : 450 Мбайт

    Продолжительность : 44 м.

    Общий поток : 1419 Кбит/сек

    Программа кодирования : FairUse Wizard - http://fairusewizard.com

    Библиотека кодирования : The best and REALLY easy backup tool

    Формат : MPEG-4 Visual

    Профиль формата : Advanced Simple@L5

    Параметр BVOP формата : 1

    Параметр QPel формата : Нет

    Параметр GMC формата : Без точки перехода

    Параметр матрицы формата : Default (MPEG)

    Режим смешивания : Сжатый битовый поток

    Идентификатор кодека : XVID

    Идентификатор кодека/Подсказка : XviD

    Продолжительность : 44 м.

    Битрейт : 1281 Кбит/сек

    Ширина : 624 пикселя

    Высота : 368 пикселей

    Соотношение сторон : 1,696

    Частота кадров : 25,000 кадров/сек

    Цветовое пространство : YUV

    Субдискретизация насыщенности : 4:2:0

    Битовая глубина : 8 бит

    Тип развёртки : Прогрессивная

    Метод сжатия : С потерями

    Размер потока : 406 Мбайт (90%)

    Библиотека кодирования : XviD 1.2.0.dev47 (UTC 2006-11-01)

    Формат : MPEG Audio

    Версия формата : Version 1

    Профиль формата : Layer 3

    Режим : Joint stereo

    Расширение режима : MS Stereo

    Идентификатор кодека : 55

    Идентификатор кодека/Подсказка : MP3

    Продолжительность : 44 м.

    Вид битрейта : Постоянный

    Битрейт : 128 Кбит/сек

    Каналы : 2 канала

    Частота : 48,0 КГц

    Метод сжатия : С потерями

    Размер потока : 40,6 Мбайт (9%)

    Выравнивание : Соединение по промежуткам

    Продолжительность промежутка : 40 мс. (1,00 видеокадр)

    Время предзагрузки промежутка : 504 мс.

    Библиотека кодирования : LAME3.97b

    Настройки программы : -m j -V 4 -q 2 -lowpass 17 -b 128

    Сериал Улицы разбитых фонарей

    • Менты 1 скачать торрент
    • Менты 1 скачать торрент
    • Менты 1 скачать торрент
    • Менты 1 скачать торрент
    • Менты 1 скачать торрент
    • Менты 1 скачать торрент
    • Менты 1 скачать торрент
    • Менты 1 скачать торрент
    • Менты 1 скачать торрент
    • Менты 1 скачать торрент
    • Менты 1 скачать торрент
    • Менты 1 скачать торрент
    • Менты 1 скачать торрент
    • Менты 1 скачать торрент
    • Менты 1 скачать торрент
    • Менты 1 скачать торрент
    • Менты 1 скачать торрент
    • Менты 1 скачать торрент
    • Менты 1 скачать торрент
    • Менты 1 скачать торрент
    • Менты 1 скачать торрент
    • Менты 1 скачать торрент
    • Менты 1 скачать торрент
    • Менты 1 скачать торрент
    • Менты 1 скачать торрент
    • Менты 1 скачать торрент
    • Менты 1 скачать торрент
    • Менты 1 скачать торрент
    • Менты 1 скачать торрент
    • Менты 1 скачать торрент
    • Менты 1 скачать торрент
    • Менты 1 скачать торрент
    • Менты 1 скачать торрент
    • Менты 1 скачать торрент
    • Менты 1 скачать торрент
    • Менты 1 скачать торрент
    • Менты 1 скачать торрент
    • Менты 1 скачать торрент
    • Менты 1 скачать торрент
    • Менты 1 скачать торрент
    • Менты 1 скачать торрент
    • Менты 1 скачать торрент
    • Менты 1 скачать торрент
    • Менты 1 скачать торрент
    • Менты 1 скачать торрент
    • Менты 1 скачать торрент
    • Менты 1 скачать торрент
    • Менты 1 скачать торрент

    Улицы разбитых фонарей. Менты — Ulicy razbityh fonarej. Menty (1997-2015) 1,2,3,4,5,6,7,8,9,10,11,12,13,14,15 сезоны

    Менты 1 скачать торрент

    Год выпуска: 1997-2015

    Жанр: боевик, драма, криминал, приключения

    Продолжительность: 15 сезонов

    Перевод: Русский (Оригинал)

    Режиссер: Александр Рогожкин, Евгений Макаров, Дмитрий Светозаров

    В ролях: Алексей Нилов, Александр Лыков, Александр Половцев, Сергей Селин, Юрий Кузнецов, Михаил Трухин, Борис Чердынцев, Андрей Краско, Виктор Бычков, Ирина Основина

    Описание Сериала: С 1997 года шествует по телевизионным экранам страны мегапопулярный сериал, созданный кинокомпанией «Русское видео фильм» по заказу телевизионного канала «НТН» и снятого в жанре криминального детектива. В основу сценария этого киноромана были положены детективные произведения писателя Андрея Кивинова, который в прошлом сам был оперативным работником и не понаслышке знает всю подноготную внутренней жизни уголовного розыска.

    Премьера этого сериала, который получил название «Улицы разбитых фонарей», состоялась на телевизионных экранах 4 января 1998 года. И с тех самых пор эта увлекательная история приковывает к экранам внимание миллионов наших соотечественников. Героями сериала являются простые оперативники и сотрудники 85-го отделения милиции города Санкт-Петербурга. Они в корне отличаются от рафинированного образа милиционеров, которых мы привыкли видеть в советских фильмах про будни уголовного розыска.

    Это не интеллектуалы типа Томина, Знаменского и Кибрит из первого советского милицейского сериала, которые одним напряжением мозга раскручивали самые немыслимые преступления против советской действительности. Эти, наоборот, похожи на простых российских людей, с присущими им маленькими слабостями и недостатками. Как и все вокруг, они отмечают радостные и грустные события за столом. Это Вы сразу же заметите, если захотите сериал «Улицы разбитых фонарей» смотреть онлайн.

    Им, как и большинству наших соотечественников, постоянно до зарплаты не хватает нескольких сотен рублей. Они не носятся по городу на крутых машинах, как их зарубежные коллеги, а ездят, чаще всего, на общественном транспорте. Они сидят не в стеклянных офисах, а в кабинетах с обшарпанными стенами и одним компьютером на всех, который чаще всего используется для виртуальных игр в редкие минуты покоя. Но что их объединяет со своими героическими предшественниками, так это бесстрашие и готовность пожертвовать своими силами, временем, да и собственным здоровьем ради мира и спокойствия простых граждан.

    Актерский коллектив был подобран с самого начала сериала очень удачно, и до конца сериала почти не претерпел изменений. А за работой героев сериала наблюдать легко и приятно.

    Поделиться ссылкой в социальных сетях: