File-Portal

скачать торрент модная штучка

Рейтинг: 4.9/5.0 (1064 проголосовавших)

Категория: Торрент-файлы

Описание

Скачать фильм Модная штучка

Скачать фильм Модная штучка / After the Ball (Шон Гэррити) [2015, комедия, WEB-DLRip] DUB - торрент

Скачать торрент фильм можно, нажав на синюю кнопку ниже. Фильм доступен на нашем торрент-трекере бесплатно, без регистрации и смс.

Скачать торрент модная штучка

Перевод: Профессиональный (полное дублирование) [iTunes] , субтитры: отсутствуют

Формат: WEB-DLRip, AVI, XviD, AC3

Режиссер: Шон Гэррити

Скачать торрент модная штучка

1738 kbps avg, 0.25 bit/pixel

Аудио: 48 kHz, AC3 Dolby Digital, 3/2 (L,C,R,l,r) + LFE ch,

Скачать торрент модная штучка

Скачать торрент модная штучка

Скачать торрент модная штучка

Скачать торрент модная штучка

Скачать торрент модная штучка

Информация о торренте:

Скачан: 4278 раз

Статус: Проверен Зарегистрирован на трекере: 2015-05-05 19:26

Как качать с торрента?

После просмотра могу сказать, что фильм слабенький и его можно глянуть, если вы девочка до 14 лет и ну совсем нечем заняться и нечего посмотреть.

. короче это фильм для малолетней заключенной в одиночку, отбывающей наказание в "строгаче". Других условий для просмотра данного фильма я не вижу.

Торрент Модная Штучка:

  • скачать
  • скачать
  • Другие статьи

    Модная штучка (2015) скачать торрент в хорошем HD качестве

    Модная штучка (2015) скачать торрент

    Для перехода к полной версии сайта нажмите сюда

    Видео: 1739 kb/s, 720x384

    Аудио: AC3, 384 kb/s (6 ch)

    Размер файла: 1.46 GB

    Перевод: Дублированное [iTunes]

    Скачать торрент модная штучка

    Сюжет торрента Модная штучка: Кейт живет модой. Девушка знает наизусть имена и коллекции мировых дизайнеров, регулярно читает глянцевые журналы, а во сне ей снятся собственные показы от кутюр. Безусловно, у девушки есть огромное желание стать частью фешенебельного и жестокого мира моды. Есть у нее и талант к дизайнерскому искусству. Однако есть еще и некое препятствие – семейный бизнес родителей Кейт связан с пошивом готовой одежды. Речь идет о масс маркете, который копирует брендовые вещички и продает их по куда более низким ценам. Неудивительно, что придя на собеседование в авторитетный дом моды девушка получила отказ. Кто захочет принять в штат «шпиона»?!

    Однако Кейт не из тех, кто быстро сдается и отказывается от мечты. По совету доброжелателей героиня меняет облик до неузнаваемости, превращаясь в общительного паренька Нейта. Уж его-то берут на работу в дом моды, тем более, что эскизы новобранца действительно впечатляют.

    Девушке нелегко дается двойная жизнь. Особенно, когда в сердце рождаются чувства к симпатичному парню по имени Дэниэл. Чтобы покорить красавчика, Кейт наряжается в белоснежное платье принцессы. И мужчина мечты, кажется, очарован таинственной незнакомкой. Но как сложится роман Кейт-Нейт и главного секс-символа офиса?

    Оригинальное название: After the Ball

    Год выхода в прокат: 2015

    Жанр: комедия, мелодрама

    Режиссер: Шон Гэррити

    Актёры: Портия Даблдэй, Марк-Андре Гронден, Крис Нот, Лорен Холли, Натали Крилл, Анна Хопкинс, Давид Микаэль, Мими Кузык, Карло Рота, Колин Мохри

    Скачать фильм Модная штучка (2014) через торрент

    Модная штучка

    Оригинальное название: After the Ball

    Возраст: зрителям, достигшим 12 лет

    Продолжительность: 98 мин. / 01:38

    Скачать фильм «Модная штучка» через торрент бесплатно

    Перевод: Дублированный [iTunes]

    Видео: 2010 Кбит/с, 1024x552

    Аудио: AC3, 6 ch, 384 Кбит/с

    Видео: Идентификатор : 1 Формат : AVC Формат/Информация : Advanced Video Codec Профиль формата : High@L4.1 Параметр CABAC формата : Да Параметр ReFrames формата : 10 кадров Идентификатор кодека : V_MPEG4/ISO/AVC Продолжительность : 1 ч. 37 м. Битрейт : 2010 Кбит/сек Ширина : 1024 пикселя Высота : 552 пикселя Соотношение сторон : 1,85:1 Режим частоты кадров : Постоянный Частота кадров : 25,000 кадров/сек Цветовое пространство : YUV Субдискретизация насыщенности : 4:2:0 Битовая глубина : 8 бит Тип развёртки : Прогрессивная Бит/(Пиксели*Кадры) : 0.142 Размер потока : 1,34 Гбайт (82%) Библиотека кодирования : x264 core 146 r2538 121396c Настройки программы : cabac=1 / ref=10 / deblock=1:-2:-2 / analyse=0x3:0x113 / me=umh / subme=10 / psy=1 / psy_rd=1.00:0.00 / mixed_ref=1 / me_range=32 / chroma_me=1 / trellis=2 / 8x8dct=1 / cqm=0 / deadzone=21,11 / fast_pskip=0 / chroma_qp_offset=-2 / threads=6 / lookahead_threads=1 / sliced_threads=0 / nr=0 / decimate=0 / interlaced=0 / bluray_compat=0 / constrained_intra=0 / bframes=9 / b_pyramid=2 / b_adapt=2 / b_bias=0 / direct=3 / weightb=1 / open_gop=0 / weightp=2 / keyint=240 / keyint_min=24 / scenecut=40 / intra_refresh=0 / rc=2pass / mbtree=0 / bitrate=2010 / ratetol=1.0 / qcomp=0.60 / qpmin=0 / qpmax=51 / qpstep=4 / cplxblur=20.0 / qblur=0.5 / ip_ratio=1.40 / pb_ratio=1.30 / aq=1:1.00 Default : Да Forced : Нет

    Аудио: Идентификатор : 2 Формат : AC-3 Формат/Информация : Audio Coding 3 Расширение режима : CM (complete main) Параметр Endianness формата : Big Идентификатор кодека : A_AC3 Продолжительность : 1 ч. 37 м. Вид битрейта : Постоянный

    Скачать торрент модная штучка Скачать торрент модная штучка

    Перевод: Дублированное [iTunes]

    Качество: WEB-DLRip (Исх. WEB-DL 720p)

    Видео: 624x336 (1.86:1), 25 fps, XviD build 73

    928 kbps avg, 0.18 bit/pixel

    Звук: 48 kHz, MPEG Layer 3, 2 ch,

    Видео: Идентификатор : 0 Формат : MPEG-4 Visual Профиль формата : Advanced Simple@L5 Параметр BVOP формата : 1 Параметр QPel формата : Нет Параметр GMC формата : Без точки перехода Параметр матрицы формата : Выборочная Идентификатор кодека : XVID Идентификатор кодека/Подсказка : XviD Продолжительность : 1 ч. 37 м. Битрейт : 928 Кбит/сек Ширина : 624 пикс. Высота : 336 пикс. Соотношение сторон : 1,857 Частота кадров : 25,000 кадр/сек Цветовое пространство : YUV Подвыборка цветности : 4:2:0 Битовая глубина : 8 бит Тип развёртки : Прогрессивная Метод сжатия : С потерями Бит/(Пиксели*Кадры) : 0.177 Размер потока : 649 Мбайт (87%) Библиотека кодирования : XviD 73

    Аудио: Идентификатор : 1 Формат : MPEG Audio Версия формата : Version 1 Профиль формата : Layer 3 Идентификатор кодека : 55 Идентификатор кодека/Подсказка : MP3 Продолжительность : 1 ч. 37 м. Вид битрейта : Постоянный Битрейт : 128 Кбит/сек Каналы : 2 канала Частота : 48,0 КГц Метод сжатия : С потерями Размер потока : 89,6 Мбайт (12%) Выравнивание : Соединение по промежуткам Продолжительность промежутка : 40 мс. (1,00 видеокадр) Время предзагрузки промежутка : 504 ms Библиотека кодирования : LAME3.99r Настройки программы : -m s -V 4 -q 2 -lowpass 17 -b 128

    Модная штучка (2015) Скачать торрент

    Модная штучка (2015) Скачать торрент

    Скачать торрент модная штучка

    Продюсер: Дон Кармоди, Робин Крумли, Габриэлла Мартинелли

    Слоган: «Золушки всегда в тренде»

    Премьера (РФ): 26 марта 2015, «Экспонента»

    Скачать торрент модная штучка Скачать торрент модная штучка Скачать торрент модная штучка Скачать торрент модная штучка

    Детская мечта, она самая яркая и для кого-то даже исполнимая. Вот и наша главная героиня по имени Кейт еще з самого детства мечтает стать известным дизайнером на весь мир. Она очень молода и прекрасна собой, очень отзывчивая, любит свою роботу и всегда идет к своей цели. С самого детства ее интересовало все и за что бы она не взялась у нее всегда все получалось. Она мечтает стат дизайнером модного дома "От кутюр", для всего этого у нее есть огромный и яркий талант, но получить эту роботу она не может. И все это потому что отец девушки занимался продажей одежды, да, да именно той одежды который выпускает работодатель девушки. Она не собирается опускать руки, а только наоборот все это придает ей больше сил. Сможет ли Кейт исполнить детскую мечту и стать знаменитым дизайнером и добиться вершины у своем любимом деле?!

    Модная штучка (2015) скачать торрент фильм бесплатно в хорошем качестве:

    Torrent файл удален по требованию правообладателей!

    Модная штучка

    Модная штучка / After the Ball (2015)

    Скачать торрент модная штучка

    Оригинальное название: After the Ball

    Год выхода: 2015

    Режиссер: Шон Гэррити

    В ролях: Портия Даблдэй, Марк-Андре Гронден, Крис Нот, Лорен Холли, Натали Крилл, Анна Хопкинс, Давид Микаэль, Мими Кузык, Карло Рота, Колин Мохри

    Выпущено: Канада / Myriad Pictures, Pacific Northwest Pictures, TVA Films

    Озвучивание: Дублированное |Лицензия|

    Скачать торрент модная штучка

    Скачать торрент модная штучка

    Скачать торрент модная штучка

    Похожие новости Комментарии (0)

    Посетители, находящиеся в группе Гости, не могут оставлять комментарии к данной публикации.