File-Portal

пятница фильм скачать торрент

Рейтинг: 4.8/5.0 (946 проголосовавших)

Категория: Торрент-файлы

Описание

Скачать фильм Пятница (2016) BDRip через торрент

Скачать фильм Пятница (Евгений Шелякин) / [2016, комедия, BDRip-AVC] - торрент

Торрент можно скачать, нажав синюю кнопку ниже. Фильм доступен на нашем торрент-трекере бесплатно, без регистрации и смс.

Пятница фильм скачать торрентФормат: BDRip-AVC, MKV, H.264, AC3

Режиссер: Евгений Шелякин

Пятница у каждого своя. В эту ночь героям предстоит кардинально преобразиться: миллионер станет простым официантом и на собственной шкуре ощутит все сложности этой профессии; офисный неудачник превратится в звезду шумной вечеринки; двум молодым людям, «не переваривающим» присутствия друг друга, придется искать в ночном лесу… кенгуру!

Героев ждут очень необычные приключения, которого у каждого в эту пятницу будут свои. А вот насколько целыми и невредимыми они выберутся из них, станет известно утром в субботу

Рейтинг и доп. информация:

Пятница фильм скачать торрент

2230 kbps avg, 0.212 bit/pixel

Аудио: 48 kHz, AC3 Dolby Digital, 3/2 (L,C,R,l,r) + LFE ch,

448.00 kbps avg [лицензия]

Unique ID : 192849617417943549185214466276668373672 (0x91157C3C4917948FA70D0563D8827AA

Complete name : C:Friday.2O16.O.BDRip.AVC.ExKinoRay.mkv

Format version : Version 4 / Version 2

File size : 1.63 GiB

Duration : 1h 26mn

Overall bit rate : 2 679 Kbps

Movie name : Пятница 2016 from ExKinoRay

Encoded date : UTC 2016-07-01 20:12:20

Writing application : mkvmerge v6.6.0 ('The Edge Of The In Between') built on Dec 1 2013 17:55:00

Writing library : libebml v1.3.0 + libmatroska v1.4.1

Format/Info : Advanced Video Codec

Format profile : High@L4.1

Format settings, CABAC : Yes

Format settings, ReFrames : 11 frames

Codec ID : V_MPEG4/ISO/AVC

Duration : 1h 26mn

Bit rate : 2 230 Kbps

Width : 1 024 pixels

Height : 428 pixels

Display aspect ratio : 2.40:1

Frame rate mode : Constant

Frame rate : 24.000 fps

Color space : YUV

Chroma subsampling : 4:2:0

Bit depth : 8 bits

Scan type : Progressive

Stream size : 1.32 GiB (81%)

Writing library : x264 core 142 r2431 ac76440

Encoding settings : cabac=1 / ref=11 / deblock=1:-2:-2 / analyse=0x3:0x113 / me=umh / subme=10 / psy=1 / psy_rd=1.05:0.15 / mixed_ref=1 / me_range=32 / chroma_me=1 / trellis=2 / 8x8dct=1 / cqm=0 / deadzone=21,11 / fast_pskip=0 / chroma_qp_offset=-3 / threads=12 / lookahead_threads=2 / sliced_threads=0 / nr=0 / decimate=0 / interlaced=0 / bluray_compat=0 / constrained_intra=0 / bframes=9 / b_pyramid=2 / b_adapt=2 / b_bias=0 / direct=3 / weightb=1 / open_gop=0 / weightp=2 / keyint=240 / keyint_min=24 / scenecut=40 / intra_refresh=0 / rc_lookahead=40 / rc=2pass / mbtree=0 / bitrate=2230 / ratetol=1.0 / qcomp=0.60 / qpmin=0 / qpmax=51 / qpstep=4 / cplxblur=20.0 / qblur=0.5 / vbv_maxrate=50000 / vbv_bufsize=62500 / nal_hrd=none / filler=0 / ip_ratio=1.40 / pb_ratio=1.30 / aq=1:1.00

Color primaries : BT.709

Transfer characteristics : BT.709

Matrix coefficients : BT.709

Format/Info : Audio Coding 3

Mode extension : CM (complete main)

Format settings, Endianness : Big

Codec ID : A_AC3

Duration : 1h 26mn

Bit rate mode : Constant

Bit rate : 448 Kbps

Channel(s) : 6 channels

Channel positions : Front: L C R, Side: L R, LFE

Пятница Фильм Торрент:

  • скачать
  • скачать
  • Другие статьи

    Скачать торрент Пятница (2016) WEB-DLRip

    Скачать Пятница (2016) WEB-DLRip торрент

    Пятница фильм скачать торрент

    Пятница фильм скачать торрент

    Режиссер: Евгений Шелякин

    В ролях: Данила Козловский, Настасья Самбурская, Катерина Шпица, Павел Деревянко, Кирилл Плетнёв, Евгения Брик (Хиривская), Антон Шагин, Ян Цапник, Евгений Стычкин, Сергей Бурунов, Сергей Чирков, Аристарх Венес, Максим Емельянов, Никита Павленко, Михаил Полицеймако, Алексей Гришин, Антон Шурцев, Айгуль Мильштейн, Лилия Лаврова, Ирина Бутанаева, Елена Лотова, Александр Зельский, Наталья Бардо, Евгения Гирзекорн, Дарья Пугачева, Эммануил Виторган, Анжелика Каширина, Юлия Чиплиева

    Что если азартный миллионер на одну ночь станет официантом, офисный лузер будет звездой самой яркой вечеринки, а двум «заклятым» друзьям придется искать кенгуру ночью в подмосковном лесу? У каждого своя пятница! Как она закончится для каждого, знает только утро субботы.

    Скачать торрент Пятница (2016) WEB-DLRip

    Скачать торрент Пятница (2016) WEB-DLRip

    Пятница фильм скачать торрент

    Пятница фильм скачать торрент

    Режиссер: Евгений Шелякин

    В ролях: Данила Козловский, Настасья Самбурская, Катерина Шпица, Павел Деревянко, Кирилл Плетнёв, Евгения Брик (Хиривская), Антон Шагин, Ян Цапник, Евгений Стычкин, Сергей Бурунов, Сергей Чирков, Аристарх Венес, Максим Емельянов, Никита Павленко, Михаил Полицеймако, Алексей Гришин, Антон Шурцев, Айгуль Мильштейн, Лилия Лаврова, Ирина Бутанаева, Елена Лотова, Александр Зельский, Наталья Бардо, Евгения Гирзекорн, Дарья Пугачева, Эммануил Виторган, Анжелика Каширина, Юлия Чиплиева

    Что если азартный миллионер на одну ночь станет официантом, офисный лузер будет звездой самой яркой вечеринки, а двум «заклятым» друзьям придется искать кенгуру ночью в подмосковном лесу? У каждого своя пятница! Как она закончится для каждого, знает только утро субботы

    Пятница фильм скачать торрент

    Студия: RSS Production

    Перевод: Не требуется

    Видео: 720x400 (1.80:1), 25 fps, XviD build 64

    962 kbps avg, 0.13 bit/pixel

    Звук: 48 kHz, AC3 Dolby Digital, 2/0 (L,R) ch,

    Пятница (2016) скачать торрент в хорошем качестве hd

    Пятница (2016) WEB-DLRip

    Производство: Россия, RSS Production

    Перевод: Не требуется [Лицензия]

    Режиссер: Евгений Шелякин

    В ролях: Данила Козловский, Настасья Самбурская, Катерина Шпица, Павел Деревянко, Кирилл Плетнёв, Евгения Брик (Хиривская), Антон Шагин, Ян Цапник, Евгений Стычкин, Сергей Бурунов, Сергей Чирков, Аристарх Венес, Максим Емельянов, Никита Павленко, Михаил Полицеймако, Алексей Гришин, Антон Шурцев, Айгуль Мильштейн, Лилия Лаврова, Ирина Бутанаева, Елена Лотова, Александр Зельский, Наталья Бардо, Евгения Гирзекорн, Дарья Пугачева, Эммануил Виторган, Анжелика Каширина, Юлия Чиплиева

    Пятница - отличная комедия российского производства от мастера своего дела Евгения Шелякина. Сюжет разворачивается вокруг весьма азартного миллионера, который решил на одну ночь стать простым официантом, а простой офисный неудачник перевоплотиться в звезду одной из самых ярких в мире вечеринок, а между тем двум друзьям придется всю ночь шарится в подмосковном лесу чтобы отыскать там кенгуру. Для каждого эта пятница станет незабываемой. Но к какому именно итогу этот день их приведет знает только одна суббота.

    Пятница (2016) НDRip, Лицензия - Скачать торрент

    пятница фильм скачать торрент

    Производство: RSS Production

    Авторы сценария: Евгений Шелякин, Ибрагим Магомедов, Саид Давдиев

    В ролях: Данила Козловский, Сергей Бурунов, Настасья Самбурская, Катерина Шпица, Павел Деревянко, Кирилл Плетнёв, Антон Шагин, Ян Цапник, Евгений Стычкин

    Описание: Что если азартный миллионер на одну ночь станет официантом, офисный лузер будет звездой самой яркой вечеринки, а двум «заклятым» друзьям придется искать кенгуру ночью в подмосковном лесу. У каждого своя пятница. Как она закончится для каждого, знает только утро субботы.

    Перевод: не требуется (оригинал)

    Видео: 720x304 (2.35:1), 24.000 fps, XviD

    Аудио: 48.0 kHz, AC3 Dolby Digital, 3/2 (L,C,R,l,r) + LFE ch,

    Дата премьеры (РФ): 26 февраля 2016, «Централ Партнершип»

    Format/Info : Audio Video Interleave

    Overall bit rate : 2 103 Kbps

    Writing application : VirtualDubMod 1.5.10.3 | (build 2550/release)

    Writing library : VirtualDubMod build 2550/release

    Format : MPEG-4 Visual

    Format profile : Advanced Simple@L5

    Format settings, BVOP : 2

    Format settings, QPel : No

    Format settings, GMC : No warppoints

    Format settings, Matrix : Default (MPEG)

    Codec ID/Hint : XviD

    Bit rate : 1 644 Kbps

    Width : 720 pixels

    Height : 304 pixels

    Display aspect ratio : 2.35:1

    Frame rate : 24.000 fps

    Color space : YUV

    Chroma subsampling : 4:2:0

    Bit depth : 8 bits

    Scan type : Progressive

    Compression mode : Lossy

    Stream size : 11.1 MiB (78%)

    Writing library : XviD 1.2.1 (UTC 2008-12-04)

    Format/Info : Audio Coding 3

    Mode extension : CM (complete main)

    Format settings, Endianness : Big

    Bit rate mode : Constant

    Bit rate : 448 Kbps

    Channel(s) : 6 channels

    Channel positions : Front: L C R, Side: L R, LFE

    Sampling rate : 48.0 KHz

    Compression mode : Lossy

    Stream size : 3.03 MiB (21%)

    Alignment : Split accross interleaves

    Interleave, duration : 42 ms (1.01 video frame)