File-Portal

великая стена скачать Torrent

Рейтинг: 4.9/5.0 (462 проголосовавших)

Категория: Торрент-файлы

Описание

Великая стена (2016) Скачать через торрент

Великая стена (2016) Скачать через торрент

Оригинальное название: The Great Wall

Слоган: «1700 years to build. 5500 miles long. What were they trying to keep out?»

Режиссер: Чжан Имоу

Бюджет: $135 000 000

Премьера (РФ): 19 января 2017, «UPI»

Сюжет фильма Великая стена (2016)

Спецэффекты и напряженность на протяжении всей картины дадут возможность почувствовать дух того времени. Любителям всего неизведанного и захватывающего картина придется по душе.

Скриншоты фильма Великая стена (2016)

Великая стена скачать torrent Великая стена скачать torrent Великая стена скачать torrent Великая стена скачать torrent

Великая стена (2016) Скачать через торрент

Видео: XviD, 1577 Кбит/с, 720x304

Аудио: Русский (AC3, 6 ch, 448 Кбит/с)

Перевод: Дублированный - Лицензия

Видео: XviD, 720x304, 23.976 fps, 1577 kbps

Аудио: AC3, 6 ch, 448 kbps

Перевод: Дублированный - Лицензия

Качество: BDRip 720p

Видео: MPEG-4 AVC, 5700 Кбит/с, 1280x536

Аудио: Русский (AC3, 6 ch, 640 Кбит/с), английский (DTS, 6 ch, 1509 Кбит/с)

Перевод: Дублированный - Лицензия

Качество: BDRip 1080p

Видео: MPEG-4 AVC, 8825 Кбит/с, 1920x806, 23.976 кадр/с

Аудио: Русский (AC3, 6 ch, 640 Кбит/с), английский (DTS, 6 ch, 1509 Кбит/с)

великая стена скачать torrent:

  • скачать
  • скачать
  • Другие статьи

    Скачать фильм Великая стена

    Скачать фильм Великая стена / The Great Wall (Чжан Имоу) [2016, фэнтези, боевик, триллер, приключения, BDRip-AVC] DUB - торрент

    Нажмите на синюю кнопку ниже, чтобы скачать фильм бесплатно через торрент. Фильм доступен на нашем торрент-трекере бесплатно, без регистрации и смс.

    _ «1700 лет ушло на строительство. 8851 км неприступных стен. Какой враг угрожал империи?»

    2807 kbps avg, 0.211 bit/pixel

    448 kbps [Профессиональный (полное дублирование)]

    Аудио #2: Английский: 48 kHz, AC3 Dolby Digital, 3/2 (L,C,R,l,r) + LFE ch,

    448 kbps [Оригинал]

    Format version : Version 4 / Version 2

    File size : 2.72 GiB

    Duration : 1h 43 min

    Overall bit rate : 3 778 kb/s

    Movie name : Великая стена / The Great Wall (2016) :: AFM ::

    Encoded date : UTC 2017-05-13 22:49:41

    Writing application : mkvmerge v8.3.0 ('Over the Horizon') 32bit

    Writing library : libebml v1.3.1 + libmatroska v1.4.2

    Format/Info : Advanced Video Codec

    Format profile : High@L4.1

    Format settings, CABAC : Yes

    Format settings, ReFrames : 11 frames

    Codec ID : V_MPEG4/ISO/AVC

    Duration : 1h 43 min

    Bit rate : 2 807 kb/s

    Width : 1 152 pixels

    Height : 482 pixels

    Display aspect ratio : 2.40:1

    Frame rate mode : Constant

    Frame rate : 23.976 (24000/1001) FPS

    Color space : YUV

    Chroma subsampling : 4:2:0

    Bit depth : 8 bits

    Scan type : Progressive

    Stream size : 2.02 GiB (74%)

    Title : BDRip By AFM

    Writing library : x264 core 150 r2818+45 3daaad6 7mod [8-bit@all X86_64]

    Encoding settings : cabac=1 / ref=11 / deblock=1:-2:-2 / analyse=0x3:0x113 / me=umh / subme=10 / psy=1 / fade_compensate=0.00 / psy_rd=1.00:0.00 / mixed_ref=1 / me_range=32 / chroma_me=0 / trellis=2 / 8x8dct=1 / cqm=0 / deadzone=21,11 / fast_pskip=0 / chroma_qp_offset=-2 / threads=6 / lookahead_threads=1 / sliced_threads=0 / nr=0 / decimate=1 / interlaced=0 / bluray_compat=0 / constrained_intra=0 / fgo=0 / bframes=14 / b_pyramid=2 / b_adapt=2 / b_bias=0 / direct=1 / weightb=1 / open_gop=0 / weightp=2 / keyint=240 / keyint_min=23 / scenecut=40 / intra_refresh=0 / rc_lookahead=60 / rc=crf / mbtree=0 / crf=18.2500 / qcomp=0.65 / qpmin=0:0:0 / qpmax=69:69:69 / qpstep=4 / vbv_maxrate=50000 / vbv_bufsize=62500 / crf_max=0.0 / nal_hrd=none / filler=0 / ip_ratio=1.30 / pb_ratio=1.20 / aq=3:0.80 / aq-sensitivity=10.00 / aq-factor=1.00:1.00:1.00 / aq2=0 / aq3=0 / zones=136286,148252,q=30

    Format/Info : Audio Coding 3

    Mode extension : CM (complete main)

    Format settings, Endianness : Big

    Codec ID : A_AC3

    Duration : 1h 43 min

    Bit rate mode : Constant

    Bit rate : 448 kb/s

    Channel(s) : 6 channels

    Channel positions : Front: L C R, Side: L R, LFE

    Sampling rate : 48.0 kHz

    Frame rate : 31.250 FPS (1536 spf)

    Compression mode : Lossy

    Stream size : 330 MiB (12%)

    Title : Dub, AC3 5.1

    Format/Info : Audio Coding 3

    Mode extension : CM (complete main)

    Format settings, Endianness : Big

    Codec ID : A_AC3

    Duration : 1h 43 min

    Bit rate mode : Constant

    Bit rate : 448 kb/s

    Channel(s) : 6 channels

    Channel positions : Front: L C R, Side: L R, LFE

    Sampling rate : 48.0 kHz

    Frame rate : 31.250 FPS (1536 spf)

    Compression mode : Lossy

    Stream size : 330 MiB (12%)

    Title : Original, AC3 5.1

    Codec ID : S_TEXT/UTF8

    Codec ID/Info : UTF-8 Plain Text

    Codec ID : S_TEXT/UTF8

    Codec ID/Info : UTF-8 Plain Text

    Codec ID : S_TEXT/UTF8

    Codec ID/Info : UTF-8 Plain Text

    Codec ID : S_TEXT/UTF8

    Codec ID/Info : UTF-8 Plain Text

    Codec ID : S_TEXT/UTF8

    Codec ID/Info : UTF-8 Plain Text

    00:00:00.000 : en:Chapter 1

    00:05:58.358 : en:Chapter 2

    00:11:47.539 : en:Chapter 3

    00:16:53.678 : en:Chapter 4

    00:20:13.252 : en:Chapter 5

    00:25:11.009 : en:Chapter 6

    00:28:55.316 : en:Chapter 7

    00:33:57.743 : en:Chapter 8

    00:37:54.145 : en:Chapter 9

    00:42:42.933 : en:Chapter 10

    00:46:18.942 : en:Chapter 11

    00:50:27.690 : en:Chapter 12

    00:56:46.067 : en:Chapter 13

    01:01:58.047 : en:Chapter 14

    01:07:12.820 : en:Chapter 15

    01:12:08.532 : en:Chapter 16

    01:18:20.862 : en:Chapter 17

    01:23:25.081 : en:Chapter 18

    01:27:26.157 : en:Chapter 19

    01:31:14.385 : en:Chapter 20

    Великая стена скачать torrent

    Великая стена скачать torrent

    Великая стена скачать torrent

    Великая стена скачать torrent

    Великая стена скачать torrent

    Информация о торренте:

    Скачан: 7796 раз

    Статус: Проверен Зарегистрирован на трекере: 2017-05-14 09:37

    Великая стена (2016) скачать торрент в хорошем качестве hd

    Великая стена / The Great Wall (2016) WEBRip

    Год выхода: 2016

    Жанр: фэнтези, боевик, триллер, детектив, приключения

    Производство: Китай, США / Atlas Entertainment, Legendary Pictures

    Перевод: Профессиональный (многоголосый) [Синема УС]

    Режиссер: Чжан Имоу

    В ролях: Мэтт Дэймон, Педро Паскаль, Уиллем Дефо, Цзин Тянь, Энди Лау, Нуман Акар, Эдди Пэн, Лухан, Кенни Линь, Чжан Ханьюй

    Великая стена - когда давно была воздвигнута огромная Великая стена, которая была призвана отгородить Поднебесную от вторжения посторонних недоброжелателей. Но никто и представить не мог, что им предстоит столкнутся со столь могущественным врагом. Мир находится на грани уничтожения и только стена способна задержать угрозу, которую необходимо предотвратить.

    »Видео: 720x304 (2.37:1), 30 fps, XviD build 50

    1680 kbps avg, 0.26 bit/pixel

    »Звук: 48 kHz, AC3 Dolby Digital, 2/0 (L,R) ch,

    Великая стена (2016) BDRip скачать через торрент бесплатно

    Великая стена (2016) BDRip торрент

    Великая стена скачать torrent

    Великая стена скачать torrent

    Название: Великая стена

    Оригинальное название: The Great Wall

    Год выхода: 2016

    Режиссер: Чжан Имоу

    Сценарий: Эдвард Цвик, Маршалл Херсковиц, Томас Тулл

    Жанр: фэнтези, боевик, триллер, приключения

    В ролях: Мэтт Дэймон, Цзин Тянь, Уиллем Дефо, Энди Лау, Педро Паскаль, Чжан Ханьюй, Лухан, Кенни Линь, Эдди Пэн, Хуан Сюань

    Выпущено: США, Китай, Гонконг, Австралия, Канада

    Перевод: Профессиональный (полное дублирование) + Оригинал

    Видео: 720x304, 23.976 fps, XviD build 65

    Аудио: 48 kHz, AC3 Dolby Digital, 3/2 (L,C,R,l,r) + LFE ch,

    Великая стена скачать torrent

    Великая стена / The Great Wall (2016) WEB-DLRip от Scarabey | iTunes

    Великая стена скачать torrent

    Великая стена скачать torrent

    Страна: США, Китай, Гонконг, Австралия, Канада

    Перевод: Профессиональный (полное дублирование) [iTunes]

    Формат видео: AVI

    1626 kbps avg, 0.31 bit/pixel

    Аудио: 48 kHz, AC3 Dolby Digital, 3/2 (L,C,R,l,r) + LFE ch,

    Великая стена скачать torrent Великая стена скачать torrent Великая стена скачать torrent Великая стена скачать torrent Великая стена скачать torrent

    По фильму, почему порох не использовали сразу?, прицельное попадание в элиту Королевы разнесла бы этих тварей в клочья! И чем кормилась такая громада зверей на протяжении 60 лет?))))))) Ну да ладно!

    А насчёт Мэтта Деймона совершенно не согласен с предыдущим оратором: на что уж далекко неглупые и не бедные Пенелопа Круз и Дональд Трамп, а снялись же у Саши Барона Коэна. Шварценеггер в своё время в клипе "ACDC" снялся. Да нехай себе ребята развлекаются.