File-Portal

скачать бутырка видео торрент

Рейтинг: 4.3/5.0 (37 проголосовавших)

Категория: Торрент-файлы

Описание

Скачать торрент Группа Бутырка - LIVE! Видеоконцерт (2015) DVD5

Скачать Группа Бутырка - LIVE! Видеоконцерт / [2015, Shanson, DVD5] - торрент

Скачать бесплатно через торрент.

Скачать бутырка видео торрентФормат: DVD5, DVD Video, MPEG2, AC3

Песня: LIVE! Видеоконцерт

6947 kbps avg, 0.838 bit/pixel

Аудио: 48.0 КГц, Audio Coding 3, 2 ch, 192 kbps

01. Вернусь домой

04. Качнём вагон

08. Воздух весны

10. Прощай тюрьма

11. Хватит мурку петь

12. Полетят рубли по ветру

13. За Ростовскую братву

15. Пойду я с Господом

16. Запахло весной

Полное имя : C:Tfilebutirka_live_[my-tfile.org]VIDEO_TSVTS_01_1.VOB

Размер файла : 1024 Мбайт

Продолжительность : 19 м.

Режим общего битрейта : Переменный

Общий поток : 7284 Кбит/сек

Идентификатор : 224 (0xE0)

Формат : MPEG Video

Версия формата : Version 2

Профиль формата : Main@Main

Параметр BVOP формата : Да

Параметр матрицы формата : По умолчанию

Параметр GOP формата : M=3, N=12

Продолжительность : 19 м.

Вид битрейта : Переменный

Битрейт : 6947 Кбит/сек

Максимальный битрейт : 9008 Кбит/сек

Ширина : 720 пикселей

Высота : 480 пикселей

Соотношение сторон : 16:9

Частота кадров : 23,976 кадра/сек

Стандарт вещания : NTSC

Цветовое пространство : YUV

Субдискретизация насыщенности : 4:2:0

Битовая глубина : 8 бит

Тип развёртки : Прогрессивная

Порядок развёртки : 2:3 Pulldown

Метод сжатия : С потерями

Временной код первого кадра : 00:00:00;00

Оригинал временного кода : Group of pictures header

GOP, открыто/закрыто : Закрыто

Размер потока : 976 Мбайт (95%)

Идентификатор : 189 (0xBD)-128 (0x80)

Формат/Информация : Audio Coding 3

Расширение режима : CM (complete main)

Параметр Endianness формата : Big

Режим смешивания : DVD-Video

Продолжительность : 19 м.

Вид битрейта : Постоянный

Битрейт : 192 Кбит/сек

Каналы : 2 канала

Расположение каналов : Front: L R

Частота : 48,0 КГц

Битовая глубина : 16 бит

Метод сжатия : С потерями

Размер потока : 27,0 Мбайт (3%)

Скачать бутырка видео торрент

Скачать бутырка видео торрент

Скачать бутырка видео торрент

Скачать бутырка видео торрент

Скачать бутырка видео торрент

Скачать бутырка видео торрент

Скачать бутырка видео торрент

Скачать бутырка видео торрент

Скачать бутырка видео торрент

Скачать бутырка видео торрент

Скачать бутырка видео торрент

Информация о торренте:

Скачан: 2283 раза

Статус: Проверен Зарегистрирован на трекере: 2015-06-08 23:40

скачать бутырка видео торрент:

  • скачать
  • скачать
  • Другие статьи

    Бутырка клипы AVI скачать бесплатно - Шансон скачать бесплатно и без регистрации ШансонПортал

    Бутырка клипы AVI скачать бесплатно

    Cкачать бесплатно Русский шансон

    Скачать бутырка видео торрент

    02. Кольщик (HD 720p) (На концерте памяти М.Круга) Скачать клип

    03. Последний рассвет (HD 720p) Скачать клип

    05. Запахло весной (HD 720p) Скачать клип

    06. Картинка медсестра (HD 720p) Скачать клип

    08. Осень в лагерях (HD 720p) Скачать клип

    09. Сероглазая шалунья (HD 720p) Скачать клип

    Альбом: Живой концерт в Сибири (Иркутск) 2007 DVDRip

    Скачать бутырка видео торрент

    Скорость передачи данных: 1770 Кбит в сек

    Общая скорость потока: 1864 Кбит в сек

    Частота кадров: 25 Кадров в сек

    Скорость потока: 93 Кбит в сек

    Каналы, количество: 2 (Стерео)

    Частота дискретизации: 44 кГц

    01. Меня встречают лагеря

    04. Бутырская тюрьма

    07. Не крутите глобус

    08. Вторяки не чай

    10. Не плачь,родная мать..

    12. Не трогай осень

    13. Последний рассвет

    15. Зеркалом блестит река

    17. Не мучь меня

    20. Запахло весной

    21. А для Вас я никто

    Концерт "Бутырка в Чите" (2007)

    Скачать бутырка видео торрент

    Концерт проходил в Чите в Окружном доме офицеров Российской Армии (ОДОРА) 28 сентября 2007 года.

    Оригинальное название: Бутырка в Чите

    Выпущено: Студия TSV

    Скорость передачи данных: 1225 Кбит в сек

    Общая скорость потока: 1318 Кбит в сек

    Бутырка - Grand Collection (2011

    Скачать Бутырка - Grand Collection (2011/DVD5) через торрент

    Скачать бутырка видео торрент

    Оригинальное название: Grand Collection

    Год выхода: 2011

    Жанр: шансон, концерт, видеоклипы

    «Бутырка» - российская музыкальная группа, исполняющая песни в жанре блатного шансона, создана в Воронеже в 2001 году продюсером многих исполнителей и проектов в жанре «русский шансон» Александром Абрамовым. Известна широкой аудитории слушателей по таким песням, как: «Отсижу за чужие грехи», «Не трогай осень», «Тает снег», «Запахло весной», «Шарик», «За ростовскую братву», «Икона», «Запах воска», «Аттестат» и многие другие песни. Считается самой популярной российской группой в жанре русского шансона. Ведёт активную концертную деятельность как в России так и за её пределами.

    03. Последний рассвет

    04. Девчонка с центра

    06. Сероглазая шалунья

    08. Пойду я с Господом

    13. Не крутите глобус

    14. Не плачь, родная мать

    15. А для вас я никто

    16. Запахло весной

    17. Не трогай осень

    19. Не мучь меня

    20. Зеркалом блестит река

    21. Меня встречают лагеря

    22. Покатилась жизнь

    Видео: PAL 4:3 (720x576@768x576) VBR,

    Аудио#2 - Русский (Dolby AC3, 2 ch), 48000Hz, 256 Kbps

    Скачать БУТЫРКА - СВИДАНКА (2015) HDTVRip

    БУТЫРКА - СВИДАНКА (2015) HDTVRip [H.264/1080i]

    Скачать бутырка видео торрент

    Стаж: 3 года 4 месяца

    Скачать бутырка видео торрент

    23-Июн-2015 01:52

    Скачать бутырка видео торрент

    Рады сообщить, в группе БУТЫРКА новый солист - Андрей Быков, с которым судьба свела в далеком 1999 году. Это прекрасный человек, талантливый музыкант и исполнитель, которого Олег Симонов приглашал работать в группу Бутырка в то время. Андрей Быков тогда жил в Пермском крае в городе Березники и по семейным обстоятельствам не смог работать в группе.

    Сейчас Андрей Быков живет в Москве и через долгих 15 лет судьба предоставила ему еще одну возможность стать вокалистом в группе Бутырка. Его первое выступление с группой состоялось 26 февраля 2015 года в городе Большой Камень на Дальнем Востоке.

    Олег Симонов: "Приятный баритон, душевное исполнение песен сразу понравились поклонникам группы и все последующие концерты прошли на ура. И теперь Андрей Быков с нами."

    Качество видео: HDTVRip

    Видео: MPEG-4 AVC/H.264, 1920x1080 (16:9), 25.000 fps,

    Аудио: AC3, 2 ch, 320 kbps, CBR

    01. Свиданка - 00:02:12

    02. День свободы - 00:08:01

    03. Золотая свадьба - 00:12:06

    04. Дожди омывают кресты - 00:16:01

    05. Субботник - 00:21:18

    06. Колея - 00:25:09

    07. Встреча - 00:29:50

    08. До осени - 00:33:48

    09. Прощай тюрьма - 00:38:40

    Mediainfo:

    Unique ID : 175959759697994009565918713711836304430 (0x84609DF515D63C9DBB22441EA99C942E)

    Complete name : C:\БУТЫРКА - СВИДАНКА.mkv

    Format version : Version 4 / Version 2

    File size : 3.10 GiB

    Duration : 43mn 1s

    Overall bit rate : 10.3 Mbps

    Encoded date : UTC 2015-06-21 19:49:08

    Writing application : mkvmerge v8.0.0 ('Til The Day That I Die') 32bit

    Writing library : libebml v1.3.1 + libmatroska v1.4.2

    _STATISTICS_WRITING_APP : mkvmerge v8.0.0 ('Til The Day That I Die') 32bit

    _STATISTICS_WRITING_DATE_UTC : 2015-06-21 19:49:08

    _STATISTICS_TAGS : BPS DURATION NUMBER_OF_FRAMES NUMBER_OF_BYTES

    Format/Info : Advanced Video Codec

    Format settings, CABAC : Yes

    Format settings, ReFrames : 4 frames

    Codec ID : V_MPEG4/ISO/AVC

    Duration : 43mn 1s

    Bit rate : 10 000 Kbps

    Width : 1 920 pixels

    Height : 1 080 pixels

    Display aspect ratio : 16:9

    Frame rate mode : Constant

    Frame rate : 25.000 fps

    Color space : YUV

    Chroma subsampling : 4:2:0

    Bit depth : 8 bits

    Scan type : Progressive

    Stream size : 2.95 GiB (95%)

    Writing library : x264 core 146 r2538 121396c

    Encoding settings : cabac=1 / ref=4 / deblock=1:-3:-3 / analyse=0x3:0x133 / me=umh / subme=10 / psy=1 / psy_rd=1.00:0.10 / mixed_ref=1 / me_range=48 / chroma_me=1 / trellis=2 / 8x8dct=1 / cqm=0 / deadzone=21,11 / fast_pskip=0 / chroma_qp_offset=-3 / threads=6 / lookahead_threads=1 / sliced_threads=0 / nr=0 / decimate=1 / interlaced=0 / bluray_compat=0 / constrained_intra=0 / bframes=5 / b_pyramid=2 / b_adapt=2 / b_bias=0 / direct=3 / weightb=1 / open_gop=0 / weightp=2 / keyint=250 / keyint_min=23 / scenecut=40 / intra_refresh=0 / rc_lookahead=40 / rc=2pass / mbtree=1 / bitrate=10000 / ratetol=1.0 / qcomp=0.60 / qpmin=10 / qpmax=51 / qpstep=4 / cplxblur=20.0 / qblur=0.5 / vbv_maxrate=62500 / vbv_bufsize=78125 / nal_hrd=none / filler=0 / ip_ratio=1.40 / aq=1:1.00

    Format/Info : Audio Coding 3

    Mode extension : CM (complete main)

    Format settings, Endianness : Big

    Codec ID : A_AC3

    Duration : 43mn 1s

    Bit rate mode : Constant

    Bit rate : 320 Kbps

    Channel(s) : 2 channels

    Channel positions : Front: L R

    Sampling rate : 48.0 KHz

    Bit depth : 16 bits

    Compression mode : Lossy

    Stream size : 98.5 MiB (3%)

    Скачать бутырка видео торрентСкачать бутырка видео торрентСкачать бутырка видео торрентСкачать бутырка видео торрент Время раздачи: с 12:00 до 23:00

    Текущее время: Сегодня 00:41

    Часовой пояс: GMT + 4

    Вы не можете отвечать на сообщения

    Вы не можете редактировать свои сообщения

    Вы не можете удалять свои сообщения

    Вы не можете голосовать в опросах

    Вы не можете прикреплять файлы к сообщениям

    Вы можете скачивать файлы

    Search Powered by Sphinx

    Powered by TorrentPier II © Meithar, TorrentPier II Team

    Бутырка - Вернусь домой (2014) DVDRip - Торрент

    Скачать бутырка видео торрент

    Бутырка - Вернусь домой › Торрент Видео » DVDRip, Концерты
    • tale
    • 19.12.2014 10:28:45
    • 867

    Скачать бутырка видео торрент

    Год выпуска: 2014

    Видео: XviD, 1500 Кбит/с, 720x540

    Аудио: MP3, 2 ch, 128 Кбит/с

    Скачать бутырка видео торрент Скачать бутырка видео торрент Скачать бутырка видео торрент Скачать бутырка видео торрент Скачать бутырка видео торрент Скачать бутырка видео торрент

    • Раздает: 0
    • Качает: 0
    • Скачали: 0
    • Размер: 777.64 Mb
    • Файлов: 1
    • Сидеры были: 27.08.2017 10:45

    Скачать бутырка видео торрент

    Скачать бутырка видео торрент

    Скачать бутырка видео торрент

    Добавление комментария:

    - Поисковых роботов: 2

    Скачать бутырка видео торрент

    Посещая данный ресурс вы автоматически соглашаетесь с Пользовательским соглашением

    Cвязь с администрацией: admin(doggy)firebit.org

    Уважаемый пользователь нашего сайта!

    Вы используете плагин AceStream/TorrentStream. В последнее время стало известно, что он распространяет вредоносное ПО. Рекомендуем удалить данный плагин.