File-Portal

дорфман скачать торрент

Рейтинг: 4.0/5.0 (520 проголосовавших)

Категория: Торрент-файлы

Описание

Скачать фильм Дорфман

Скачать фильм Дорфман / Dorfman (Брэд Леонг) [2011, мелодрама, комедия, WEB-DLRip ]MVO - торрент

Нажмите на синюю кнопку ниже, чтобы скачать фильм бесплатно через торрент. Фильм доступен на нашем торрент-трекере бесплатно, без регистрации и смс.

Дорфман скачать торрентПеревод: Профессиональный (многоголосый, закадровый), cубтитры: отсутствуют

Формат: WEB-DLRip, AVI, XviD, AC3

Режиссер: Брэд Леонг

Описание: Милая, весёлая комедия про жизнь молодой девушки Деб Дорфман. Ей повезло переехать из деревенского Сан Фернандо в бизнес часть Лос-Анджелеса и возможно встретить того единственного и неповторимого, которого все ищут.

Дорфман скачать торрент

Дорфман скачать торрент

Видео: 720x400 (1.80:1), 23.976 fps, XviD build 50

1740 kbps avg, 0.25 bit/pixel

Аудио: 48 kHz, AC3 Dolby Digital, 2/0 (L,R) ch,

Дорфман скачать торрент

Дорфман скачать торрент

Дорфман скачать торрент

Дорфман скачать торрент

Дорфман скачать торрент

Дорфман скачать торрент

Дорфман скачать торрент

Дорфман скачать торрент

Информация о торренте:

Скачан: 1353 раза

Статус: Временная раздача Зарегистрирован на трекере: 2013-11-14 22:25

дорфман скачать торрент:

  • скачать
  • скачать
  • Другие статьи

    Дорфман скачать торрент

    Влюбленная Дорфман / Dorfman in Love (2011) WEB-DL 720p от CINEMANIA | НТВ+

    Дорфман скачать торрент

    Название: Влюбленная Дорфман

    Оригинальное название: Dorfman in Love

    Год выпуска: 2011

    Жанр: комедия, мелодрама

    Режиссер: Брэд Леонг

    В ролях: Скотт Уилсон, Сара Рю, Эллиотт Гулд, Софи Монк, Кэтрин Хикс, Йохан Урб, Аллен Теоски Роу, Кери Линн Прэтт, Келен Коулмэн, Хейли Норман

    Личная жизнь Деб Дорфман не складывается. Никто не знает, что вот уже десять лет она любит Джея, лучшего друга своего брата. Однажды Джей уезжает и просит Деб присмотреть за квартирой и котом. Девушка с радостью соглашается, не подозревая, что одна неделя полностью изменит её жизнь и подарит судьбоносную встречу…

    Озвучивание: Профессиональное (многоголосое) [Нтв+]

    Качество: WEB-DL 720p [CINEMANIA]

    Видео: 3804 kb/s, 1280x718

    Аудио: Russian: AC3, 192 kb/s (2 ch) / English: AC3, 384 kb/s (6 ch)

    Дополнительно: Сохранены оригинальные чаптеры как на Blu-Ray

    Скачать Дорфман

    Название сайта!

    Дорфман скачать торрент

    Название зарубежное: Dorfman

    Слоган: «She's a Work in Progress»

    Режиссер: Брэд Леонг

    Сценарий: Wendy Kout

    Продюсер: Леонард Хилл, Yuval Bar-Zemer, Дэниэл Т. Кан

    Оператор: Рэйчел Моррисон

    Композитор: Дэвид Рейнольдс

    Художник: Эми Стофски, Эллен Брилл, Синди Коберн

    Монтаж: Дэниэл Т. Кан

    Жанр: мелодрама, комедия

    Дорфман скачать торрент

    Продолжительность: 92 мин. / 01:32

    Рейтинг IMDB: 6.00 (770)

    Перевод: Профессиональный (многоголосный) [НТВ+]

    Видео: MPEG4, XviD, 720x400 (16:9), 23.976 fps, 1 741 Kbps

    Аудио: AC-3, 48.0 KHz, 2 ch, 192 Kbps, CBR (RUS/ENG)

    Влюбленная Дорфман

    дорфман скачать торрент

    Название: Влюбленная Дорфман

    Оригинальное название: Dorfman in Love

    Год выпуска: 2011

    Жанр: комедия, мелодрама

    Режиссер: Брэд Леонг

    В ролях: Скотт Уилсон, Сара Рю, Эллиотт Гулд, Софи Монк, Кэтрин Хикс, Йохан Урб, Аллен Теоски Роу, Кери Линн Прэтт, Келен Коулмэн, Хейли Норман

    Личная жизнь Деб Дорфман не складывается. Никто не знает, что вот уже десять лет она любит Джея, лучшего друга своего брата. Однажды Джей уезжает и просит Деб присмотреть за квартирой и котом. Девушка с радостью соглашается, не подозревая, что одна неделя полностью изменит её жизнь и подарит судьбоносную встречу…

    Озвучивание: Профессиональное (многоголосое) [Нтв+]

    Качество: WEB-DL 720p [CINEMANIA]

    Видео: 3804 kb/s, 1280x718

    Аудио: Russian: AC3, 192 kb/s (2 ch) / English: AC3, 384 kb/s (6 ch)

    Дополнительно: Сохранены оригинальные чаптеры как на Blu-Ray

    Дорфман скачать торрент

    Дорфман / Влюбленная Дорфман / Dorfman / Dorfman in Love (2011) WEB-DLRip

    Дорфман скачать торрент

    Жанр: Мелодрама, Комедия

    Личная жизнь Деб Дорфман не складывается. Никто не знает, что вот уже десять лет она любит Джея, лучшего друга своего брата. Однажды Джей уезжает и просит Деб присмотреть за квартирой и котом. Девушка с радостью соглашается, не подозревая, что одна неделя полностью изменит её жизнь и подарит судьбоносную встречу…

    Актеры: Скотт Уилсон, Сара Рю, Эллиотт Гулд, Софи Монк, Кэтрин Хикс, Йохан Урб, Аллен Теоски Роу, Кери Линн Прэтт, Келен Коулмэн, Хейли Норман

    Качество видео: WEB-DLRip

    Перевод: Двуголосый закадровый, профессиональный (НТВ+)

    Размер кадра: 720x400

    Аудио 1: АС3 2.0, 192 kb/s, Русский

    Аудио 2: АС3 2.0, 192 kb/s, Английский

    Полное имя : C:Торренты\Дорфман.2011.WEBDLRip.avi

    Формат/Информация : Audio Video Interleave

    Размер файла : 1,37 Гбайт

    Продолжительность : 1 ч. 31 м.

    Общий поток : 2139 Кбит/сек

    Программа кодирования : VirtualDubMod 1.5.10.2 (build 2540/release)

    Библиотека кодирования : VirtualDubMod build 2540/release

    Формат : MPEG-4 Visual

    Профиль формата : Advanced Simple@L5

    Параметр BVOP формата : 2

    Параметр QPel формата : Нет

    Параметр GMC формата : Без точки перехода

    Параметр матрицы формата : Default (MPEG)

    Идентификатор кодека : XVID

    Идентификатор кодека/Подсказка : XviD

    Продолжительность : 1 ч. 31 м.

    Битрейт : 1741 Кбит/сек

    Ширина : 720 пикселей

    Высота : 400 пикселей

    Соотношение сторон : 16:9

    Частота кадров : 23,976 кадра/сек

    Цветовое пространство : YUV

    Субдискретизация насыщенности : 4:2:0

    Битовая глубина : 8 бит

    Тип развёртки : Прогрессивная

    Метод сжатия : С потерями

    Размер потока : 1,12 Гбайт (81%)

    Библиотека кодирования : XviD 1.2.1 (UTC 2008-12-04)

    Формат/Информация : Audio Coding 3

    Расширение режима : CM (complete main)

    Параметр Endianness формата : Big

    Идентификатор кодека : 2000

    Продолжительность : 1 ч. 31 м.

    Вид битрейта : Постоянный

    Битрейт : 192 Кбит/сек

    Каналы : 2 канала

    Расположение каналов : Front: L R

    Частота : 48,0 КГц

    Битовая глубина : 16 бит

    Метод сжатия : С потерями

    Размер потока : 126 Мбайт (9%)

    Выравнивание : Разделение по промежуткам

    Продолжительность промежутка : 42 мс. (1,00 видеокадр)

    Время предзагрузки промежутка : 500 мс.

    Формат/Информация : Audio Coding 3

    Расширение режима : CM (complete main)

    Параметр Endianness формата : Big

    Идентификатор кодека : 2000

    Продолжительность : 1 ч. 31 м.

    Вид битрейта : Постоянный

    Битрейт : 192 Кбит/сек

    Каналы : 2 канала

    Расположение каналов : Front: L R

    Частота : 48,0 КГц

    Битовая глубина : 16 бит

    Метод сжатия : С потерями

    Размер потока : 126 Мбайт (9%)

    Выравнивание : Разделение по промежуткам

    Продолжительность промежутка : 42 мс. (1,00 видеокадр)