File-Portal

скачать торрент фильм король обезьян

Рейтинг: 4.7/5.0 (459 проголосовавших)

Категория: Торрент-файлы

Описание

Король обезьян: Начало

Король обезьян: Начало / The Monkey King the Legend Begins (2016) скачать торрент

Скачать торрент фильм король обезьян

Оригинальное название: The Monkey King the Legend Begins

Год выхода: 2016

Жанр: фэнтези, боевик, приключения

Режиссер: Пейтон Рид

В ролях: Аарон Квок, Гон Ли Чоу, Юньфат Чунг, Хим Ло, Шаофен Фен, Сяо Шенъян

Выпущено: США, Китай / Filmko Films Production Limited, Filmko Pictures

Перевод: Любительский (одноголосый) [Хихикающий доктор]

Скачать торрент фильм король обезьян

Скачать торрент фильм король обезьян

Скачать торрент фильм король обезьян

Скачать торрент фильм король обезьян

Напиши комментарий и заработай!

Каждый комментарий принесёт доход!

Скачать торрент фильм Король обезьян: Начало / The Monkey King the Legend Begins (2016) бесплатно без регистрации и без рейтинга

скачать торрент фильм король обезьян:

  • скачать
  • скачать
  • Другие статьи

    Король обезьян: Начало (2016) Скачать торрент

    Король обезьян: Начало (2016) Скачать торрент

    Скачать торрент фильм король обезьян

    Продюсер: Роберт Харрис, Марк Гас Скотт, Майкл Верхан

    Бюджет: $68 005 000

    Рейтинг IMDB: 6.10 (686)

    Фильм построен в виде рассказа от имени монаха. Он держит долгий и утомительный путь из Европы в Китай вместе с двумя любознательными детьми. Чтобы чем-то занять ребят в дороге старый монах начинает свой рассказ. История начинается с масштабного сражения между силами зла и добра, демонами и солдатами Нефритового Императора. В этой битве победила армия Короля демонов Баффало. Принцесса Небесного царства с мечтой спасти свое королевство, жертвует собственной жизнью. Она разбивается на тысячу осколков, с которых строится защитная крепость. В это время на землю падает маленькая обезьяна, в дальнейшем главный герой истории монаха. Это ни кто другой, как знаменитый Сунь Укун, который может спасти королевство. Скачивайте на нашем сайте абсолютно бесплатно приключенческий фильм «Король обезьян: Начало».

    Король обезьян: Начало (2016) скачать торрент фильм бесплатно в хорошем качестве:

    Скачать через торрент: Король обезьян: Начало (2016) HDRip

    Перевод / Озвучка: Любительский двухголосный - Ворон и Sandairina

    Продолжительность: 119 мин. / 01:59

    Видео: XviD, 1637 Kb/s, 720x304

    Аудио: MP3, 192 Kb/s 2 ch

    Перевод / Озвучка: Любительский двухголосный - Ворон и Sandairina

    Продолжительность: 119 мин. / 01:59

    Видео: MPEG-4 AVC, 5056 Kбит/с, 1280x544

    Аудио: Русский (AC3, 6 ch, 640 Кбит/с), китайский (DTS, 6 ch, 1510 Кбит/с)

    Перевод / Озвучка: Любительский (одноголосый) [Хихикающий доктор]

    Продолжительность: 119 мин. / 01:59

    Видео: MPEG-4 AVC, 9000 Kбит/с, 1920x816

    Аудио: Русский (AC3, 6 ch, 640 Кбит/с), китайский (DTS, 6 ch, 1510 Кбит/с)

    Царь обезьян: Начало легенды

    скачать торрент фильм король обезьян

    Скачать торрент фильм король обезьян Скачать торрент фильм король обезьян Скачать торрент фильм король обезьян Скачать торрент фильм король обезьян Скачать торрент фильм король обезьян Скачать торрент фильм король обезьян Скачать торрент фильм король обезьян Скачать торрент фильм король обезьян Скачать торрент фильм король обезьян Скачать торрент фильм король обезьян Скачать торрент фильм король обезьян Скачать торрент фильм король обезьян Скачать торрент фильм король обезьян Скачать торрент фильм король обезьян Скачать торрент фильм король обезьян

    Скачать торрент фильм король обезьян

    Царь обезьян: Начало легенды / Король обезьян 2 / Xi you ji zhi: Sun Wukong san da Baigu Jing (2016) HDRip от torrentfilm | L2 - скачать торрент

    Скачать торрент фильм король обезьян

    Добавлено: 21 май 2016

    Информация о фильме

    Название: Король обезьян: Начало / Король обезьян 2

    Оригинальное название: Xi you ji zhi: Sun Wukong san da Baigu Jing / The Monkey King the Legend Begins / The Monkey King 2

    Жанр: Фэнтези, боевик, приключения

    Режиссер: Чин Поу-сои / Pou-Soi Cheang

    В ролях: Аарон Квок, Уильям Фэн, Гун Ли, Келли Чен, Чун Хим Ло, Лю Вэй, Фэй Сян, Сяо Шэнь-Ян.

    Король Обезьян должен защитить странствующего монаха и препроводить его к цели путешествия, чтобы спасти священные писания и защитить монаха от злобного демона.

    Студия: Filmko Films Production Limited, Filmko Pictures

    Перевод: Любительский (двухголосый закадровый) Ворон и Sandairina

    Видео: 720x304 (2.37:1), 23.976 fps, XviD build 73

    1548 kbps avg, 0.29 bit/pixel

    Звук: 48 kHz, AC3 Dolby Digital, 2/0 (L,R) ch,

    Скачать фильм Царь обезьян (2014) через торрент

    Царь обезьян

    Оригинальное название: Xi you ji: Da nao tian gong

    Продолжительность: 90 мин. / 01:30

    Скачать фильм «Царь обезьян» через торрент бесплатно

    Перевод: Любительский (двухголосый закадровый) группа "GREEN TEA" (Елена Егорова и Валерий Феодосов ) (Перевод: Анна Сумцова)

    Видео: XviD, 720x304, 1499 Kbps

    Звук: AC3, 2 ch,256 Kbps

    Скачать торрент фильм король обезьян Скачать торрент фильм король обезьян

    Качество: BDRip 1080p[CHD]

    Видео: 8293 kb/s, 1920x804

    Аудио: Russian: [Ворон и Sandairina]: AC3, 448 kb/s (6 ch) Russian: [Виктор Береговых]: AC3, 640 kb/s (6 ch) Chinese: DTS, 768 kb/s (6 ch)

    Субтитры: Russian[ФСГ "Альянс"], English

    Видео: Идентификатор : 1 Формат : AVC Формат/Информация : Advanced Video Codec Профиль формата : High@L4.1 Параметр CABAC формата : Да Параметр ReFrames формата : 5 кадров Идентификатор кодека : V_MPEG4/ISO/AVC Продолжительность : 1 ч. 59 м. Битрейт : 8293 Кбит/сек Ширина : 1920 пикселей Высота : 804 пикселя Соотношение сторон : 2,40:1 Режим частоты кадров : Постоянный Частота кадров : 23,976 кадра/сек Цветовое пространство : YUV Субдискретизация насыщенности : 4:2:0 Битовая глубина : 8 бит Тип развёртки : Прогрессивная Бит/(Пиксели*Кадры) : 0.224 Размер потока : 6,73 Гбайт (80%) Заголовок : Release Group CINEMANIA Библиотека кодирования : x264 core 135 r2345 f0c1c53 Настройки программы : cabac=1 / ref=5 / deblock=1:-3:-3 / analyse=0x3:0x113 / me=umh / subme=10 / psy=1 / psy_rd=1.05:0.10 / mixed_ref=1 / me_range=48 / chroma_me=1 / trellis=2 / 8x8dct=1 / cqm=0 / deadzone=21,11 / fast_pskip=0 / chroma_qp_offset=-2 / threads=12 / lookahead_threads=1 / sliced_threads=0 / nr=0 / decimate=1 / interlaced=0 / bluray_compat=0 / constrained_intra=0 / bframes=6 / b_pyramid=2 / b_adapt=2 / b_bias=0 / direct=3 / weightb=1 / open_gop=0 / weightp=2 / keyint=250 / keyint_min=23 / scenecut=40 / intra_refresh=0 / rc_lookahead=40 / rc=2pass / mbtree=0 / bitrate=8293 / ratetol=2.0 / qcomp=0.70 / qpmin=0 / qpmax=69 / qpstep=4 / cplxblur=20.0 / qblur=0.5 / vbv_maxrate=40000 / vbv_bufsize=30000 / nal_hrd=none / ip_ratio=1.40 / pb_ratio=1.30 / aq=2:1.00 Язык : Chinese Default : Нет Forced : Нет

    Аудио #1: Идентификатор : 2 Формат : AC-3 Формат/Информация : Audio Coding 3 Расширение режима : CM (complete main) Параметр Endianness формата : Big Идентификатор кодека : A_AC3 Продолжительность : 1 ч. 59 м. Вид битрейта : Постоянный Битрейт : 448 Кбит/сек Каналы : 6 каналов Расположение каналов : Front: L C R, Side: L R, LFE Частота : 48,0 КГц Битовая глубина : 16 бит Метод сжатия : С потерями Размер потока : 382 Мбайт (4%) Заголовок : Ворон и Sandairina Язык : Russian Default : Да Forced : Да

    Аудио #2: Идентификатор : 3 Формат : AC-3 Формат/Информация : Audio Coding 3 Расширение режима : CM (complete main) Параметр Endianness формата : Big Идентификатор кодека : A_AC3 Продолжительность : 1 ч. 59 м. Вид битрейта : Постоянный Битрейт : 640 Кбит/сек Каналы : 6 каналов Расположение каналов : Front: L C R, Side: L R, LFE Частота : 48,0 КГц Битовая глубина : 16 бит Метод сжатия : С потерями Размер потока : 546 Мбайт (6%) Заголовок : Виктор Береговых Язык : Russian Default : Нет Forced : Нет

    Аудио #3: Идентификатор : 4 Формат : DTS Формат/Информация : Digital Theater Systems Режим : 16 Параметр Endianness формата : Big Идентификатор кодека : A_DTS Продолжительность : 1 ч. 59 м. Вид битрейта : Постоянный Битрейт : 768 Кбит/сек Каналы : 6 каналов Расположение каналов : Front: L C R, Side: L R, LFE Частота : 48,0 КГц Битовая глубина : 24 бит Метод сжатия : С потерями Размер потока : 655 Мбайт (8%) Язык : Chinese Default : Нет Forced : Нет

    Скачать торрент фильм король обезьян Скачать торрент фильм король обезьян

    Качество: BDRip 720p[CHD]

    Видео: 4021 kb/s, 1280x536

    Аудио: Russian: [Ворон и Sandairina]: AC3, 448 kb/s (6 ch) Russian: [Виктор Береговых]: AC3, 640 kb/s (6 ch) Chinese: DTS, 768 kb/s (6 ch)

    Субтитры: Russian[ФСГ "Альянс"], English

    Видео: Идентификатор : 1 Формат : AVC Формат/Информация : Advanced Video Codec Профиль формата : High@L4.1 Параметр CABAC формата : Да Параметр ReFrames формата : 10 кадров Идентификатор кодека : V_MPEG4/ISO/AVC Продолжительность : 1 ч. 59 м. Битрейт : 4021 Кбит/сек Ширина : 1280 пикселей Высота : 536 пикселей Соотношение сторон : 2,40:1 Режим частоты кадров : Постоянный Частота кадров : 23,976 кадра/сек Цветовое пространство : YUV Субдискретизация насыщенности : 4:2:0 Битовая глубина : 8 бит Тип развёртки : Прогрессивная Бит/(Пиксели*Кадры) : 0.244 Размер потока : 3,25 Гбайт (66%) Заголовок : Release Group CINEMANIA Библиотека кодирования : x264 core 135 r2345 f0c1c53 Настройки программы : cabac=1 / ref=10 / deblock=1:-3:-3 / analyse=0x3:0x113 / me=umh / subme=10 / psy=1 / psy_rd=1.00:0.05 / mixed_ref=1 / me_range=32 / chroma_me=1 / trellis=2 / 8x8dct=1 / cqm=0 / deadzone=21,11 / fast_pskip=0 / chroma_qp_offset=-2 / threads=8 / lookahead_threads=1 / sliced_threads=0 / nr=0 / decimate=1 / interlaced=0 / bluray_compat=0 / constrained_intra=0 / bframes=5 / b_pyramid=2 / b_adapt=2 / b_bias=0 / direct=3 / weightb=1 / open_gop=0 / weightp=2 / keyint=250 / keyint_min=23 / scenecut=40 / intra_refresh=0 / rc=2pass / mbtree=0 / bitrate=4021 / ratetol=1.0 / qcomp=0.70 / qpmin=0 / qpmax=69 / qpstep=4 / cplxblur=20.0 / qblur=0.5 / ip_ratio=1.40 / pb_ratio=1.30 / aq=2:0.90 Язык : Chinese Default : Нет Forced : Нет

    Аудио #1: Идентификатор : 2 Формат : AC-3 Формат/Информация : Audio Coding 3 Расширение режима : CM (complete main) Параметр Endianness формата : Big Идентификатор кодека : A_AC3 Продолжительность : 1 ч. 59 м. Вид битрейта : Постоянный Битрейт : 448 Кбит/сек Каналы : 6 каналов Расположение каналов : Front: L C R, Side: L R, LFE Частота : 48,0 КГц Битовая глубина : 16 бит Метод сжатия : С потерями Размер потока : 382 Мбайт (8%) Заголовок : Ворон и Sandairina Язык : Russian Default : Да Forced : Да

    Аудио #2: Идентификатор : 3 Формат : AC-3 Формат/Информация : Audio Coding 3 Расширение режима : CM (complete main) Параметр Endianness формата : Big Идентификатор кодека : A_AC3 Продолжительность : 1 ч. 59 м. Вид битрейта : Постоянный Битрейт : 640 Кбит/сек Каналы : 6 каналов Расположение каналов : Front: L C R, Side: L R, LFE Частота : 48,0 КГц Битовая глубина : 16 бит Метод сжатия : С потерями Размер потока : 546 Мбайт (11%) Заголовок : Виктор Береговых Язык : Russian Default : Нет Forced : Нет

    Аудио #3: Идентификатор : 4 Формат : DTS Формат/Информация : Digital Theater Systems Режим : 16 Параметр Endianness формата : Big Идентификатор кодека : A_DTS Продолжительность : 1 ч. 59 м. Вид битрейта : Постоянный Битрейт : 768 Кбит/сек Каналы : 6 каналов Расположение каналов : Front: L C R, Side: L R, LFE Частота : 48,0 КГц Битовая глубина : 24 бит Метод сжатия : С потерями Размер потока : 655 Мбайт (13%) Язык : Chinese Default : Нет Forced : Нет

    Царь обезьян: Начало легенды (2016) скачать торрентом в хорошем качестве HD бесплатно

    Скачать фильм "Царь обезьян: Начало легенды" через торрент в хорошем качестве бесплатно

    Оригинальное название: Xi you ji zhi: Sun Wukong san da Baigu Jing

    Премьера в мире: 20 января 2016

    Продолжительность: 119 мин. / 01:59

    Описание: Монах отправился в путешествие с двумя охранниками, чтобы раздобыть древние священные писания. Дорога странников привела к горе пяти стихий. Здесь на них нападает огромный тигр. Телохранители сбегают, и оставляют монаха один на один с хищником. Он пытается спрятаться внутри пещеры. Тут он замечает странное существо, которое просит потянуть за лоскуток материи. На ней написаны странные символы. Он обещает избавить монаха от тигра, если тот его вызволит из заточения. Выбора не остается, и теперь нечто вырывается на свободу. Этим существом оказывается Король обезьян, которого заточили здесь его враги. Он быстро расправляется со зверем и обещает помочь монаху раздобыть ценные свитки. Героев ждут удивительные приключения и встреча с опасной Костяной Ведьмой. Король обезьян должен снова доказать свое превосходство с любым противником.

    Скачать торрент фильм король обезьян

    Актеры: Аарон Квок , Гун Ли , Уильям Фэн , Сяо Шеньян , Ло Чун-Хим , Фэй Сян , Келли Чен , Жизель Ци , Джон Чин , Лю Чутянь