File-Portal

скачать фильм торрент ущелье духов

Рейтинг: 4.0/5.0 (33 проголосовавших)

Категория: Торрент-файлы

Описание

Скачать фильм Ущелье духов (1991) через торрент

Скачать фильм Ущелье духов (Сергей Нилов) / [1991, боевик, VHSRip] - торрент

Нажмите на синюю кнопку, чтобы скачать фильм через торрент бесплатно. Фильм доступен на нашем торрент-трекере бесплатно, без регистрации и смс.

Скачать фильм торрент ущелье духов

Формат: VHSRip, AVI, DivX, MP3

Описание: О последней военной операции в Афганистане. Группа капитана Грачева получает задание захватить караван противника с оружием и наркотиками и разгромить одну из баз душманов. Пытаясь осмыслить суть этой странной и страшной войны группа встречает отчаянное сопротивление.

1799 kbps avg, 0.20 bit/pixel

Аудио: 48 kHz, MPEG Layer 3, 1 ch,

Скачать фильм торрент ущелье духов

Скачать фильм торрент ущелье духов

Скачать фильм торрент ущелье духов

Скачать фильм торрент ущелье духов

Скачать фильм торрент ущелье духов

Скачать фильм торрент ущелье духов

Скачать фильм торрент ущелье духов

Информация о торренте:

Скачан: 9870 раз

Статус: Проверен Зарегистрирован на трекере: 2010-10-03 12:23

скачать фильм торрент ущелье духов:

  • скачать
  • скачать
  • Другие статьи

    Скачать фильмы Ущелье Духов - ТОРРЕНТИНО - торрент трекер - бесплатно VHSRip

    Ущелье Духов (1991) VHSRip

    Информация о фильме

    Название: Ущелье Духов

    Год выхода: 1991

    Жанр: Драма, боевик

    Режиссер: Сергей Нилов

    В ролях: Александр Казаков, Вадим Степашкин, Владислав Толдыков, Виктор Павлюченков, Денис Банников, Мулькаман Оразов, Вадим Пожарский.

    Сценарий к фильму написал писатель и военный корреспондент Александр Проханов, который уже до этого, в 1988 году, совместно с режиссёром Алексеем Салтыковым написали сценарий к нашумевшей киноповести За всё заплачено.

    О последней военной операции в Афганистане. Группа капитана Грачева получает задание захватить караван противника с оружием и наркотиками и разгромить одну из баз душманов. Пытаясь осмыслить суть этой странной и страшной войны группа встречает отчаянное сопротивление.

    Страна: Россия, Туркменистан

    Перевод: Не требуется (русский язык)

    Видео: 720x544 (1.32:1), 25 fps, XviD build 50

    2199 kbps avg, 0.22 bit/pixel

    Звук: 48 kHz, AC3 Dolby Digital, 2/0 (L,R) ch,

    Ущелье духов (1991) VHSRip

    Ущелье духов (1991) VHSRip

    Скачать фильм торрент ущелье духов

    Производство: Россия, Туркменистан

    Год выпуска: 1991

    Перевод: Не требуется (Русский)

    Сценарий к фильму написал писатель и военный корреспондент Александр Проханов, который уже до этого, в 1988 году, совместно с режиссёром Алексеем Салтыковым написали сценарий к "нашумевшей" киноповести "За всё заплачено". О последней военной операции в Афганистане. Группа капитана Грачева получает задание захватить караван противника с оружием и наркотиками и разгромить одну из баз душманов. Пытаясь осмыслить суть этой странной и страшной войны группа встречает отчаянное сопротивление.

    Актеры: Александр Казаков, Вадим Степашкин, Владислав Толдыков, Виктор Павлюченков, Денис Банников, Мулькаман Оразов, Вадим Пожарский.

    Размер кадра: 720 x 544

    Качество видео: VHSRip

    Аудиокодек: AC3 2.0

    Битрейт аудио: 192 Kbit/s

    Полное имя : D:\Торренты\Ущелье духов.1991.VHSRip.avi

    Формат/Информация : Audio Video Interleave

    Размер файла : 1,37 Гбайт

    Продолжительность : 1 ч. 21 м.

    Общий поток : 2402 Кбит/сек

    Программа кодирования : VirtualDubMod 1.5.10.3 (build 2550/release)

    Библиотека кодирования : VirtualDubMod build 2550/release

    Формат : MPEG-4 Visual

    Профиль формата : Advanced Simple@L5

    Параметр BVOP формата : 1

    Параметр QPel формата : Нет

    Параметр GMC формата : Без точки перехода

    Параметр матрицы формата : Default (MPEG)

    Идентификатор кодека : XVID

    Идентификатор кодека/Подсказка : XviD

    Продолжительность : 1 ч. 21 м.

    Битрейт : 2200 Кбит/сек

    Ширина : 720 пикс.

    Высота : 544 пикс.

    Соотношение сторон : 4:3

    Частота кадров : 25,000 кадр/сек

    Цветовое пространство : YUV

    Подвыборка цветности : 4:2:0

    Битовая глубина : 8 бит

    Тип развёртки : Прогрессивная

    Метод сжатия : С потерями

    Размер потока : 1,25 Гбайт (92%)

    Библиотека кодирования : XviD 1.2.1 (UTC 2008-12-04)

    Формат/Информация : Audio Coding 3

    Расширение режима : CM (complete main)

    Идентификатор кодека : 2000

    Продолжительность : 1 ч. 21 м.

    Вид битрейта : Постоянный

    Битрейт : 192 Кбит/сек

    Каналы : 2 канала

    Расположение каналов : Front: L R

    Частота : 48,0 КГц

    Битовая глубина : 16 бит

    Метод сжатия : С потерями

    Размер потока : 112 Мбайт (8%)

    Выравнивание : Разделение по промежуткам

    Продолжительность промежутка : 40 мс. (1,00 видеокадр)

    Ущелье - духов - скачать торрент (Сергей Нилов) 1991, драма, боевик, VHSRip

    Ущелье "духов" (Сергей Нилов) [1991, драма, боевик, VHSRip]

    Скачать фильм торрент ущелье духов

    Стаж: 9 лет 5 месяцев

    Skaramusch · 27-Окт-12 15:53 (4 года 10 месяцев назад, ред. 11-Фев-13 05:54)

    Жанр : драма, боевик

    Год выпуска : 1991

    Продолжительность : 01:21:34 Режиссёр : Сергей Нилов В ролях : Виктор Павлюченков, Вадим Пожарский, Александр Казаков, Владислав Толдыков, Денис Банников, Мулькаман Оразов, Дмитрий Гребенщиков Описание : О последней военной операции в Афганистане. Группа капитана Грачева получает задание захватить караван противника с оружием и наркотиками и разгромить одну из баз душманов. Пытаясь осмыслить суть этой странной и страшной войны, группа встречает отчаянное сопротивление. Доп. информация : Сценарий к фильму написал писатель и военный корреспондент Александр Проханов, который уже до этого, в 1988 году, совместно с режиссёром Алексеем Салтыковым, написал сценарий к нашумевшей киноповести "За всё заплачено".

    Рип изготовил и поделился с нами товарищ 1855640 , за что ему огромное спасибо!

    Качество видео : VHSRip

    Формат видео : AVI

    Видео : 720x540 (1.33:1), 25 fps, XviD build 50

    2797 kbps avg, 0.29 bit/pixel

    Аудио : 44.100 kHz, MPEG Layer 3, 2 ch,

    Format/Info : Audio Video Interleave

    Format profile : OpenDML

    File size : 1.71 GiB

    Duration : 1h 21mn

    Overall bit rate : 2 997 Kbps

    Writing application : MEncoder SVN-r29352(20090610-gcc4.3.3)

    Writing library : MPlayer

    Format : MPEG-4 Visual

    Format profile : Advanced Simple@L5

    Format settings, BVOP : 2

    Format settings, QPel : No

    Format settings, GMC : No warppoints

    Format settings, Matrix : Default (H.263)

    Codec ID/Hint : XviD

    Duration : 1h 21mn

    Bit rate : 2 791 Kbps

    Width : 720 pixels

    Height : 540 pixels

    Display aspect ratio : 4:3

    Frame rate : 25.000 fps

    Color space : YUV

    Chroma subsampling : 4:2:0

    Bit depth : 8 bits

    Scan type : Progressive

    Compression mode : Lossy

    Stream size : 1.59 GiB (93%)

    Writing library : XviD 1.2.1 (UTC 2008-12-04)

    Format : MPEG Audio

    Format version : Version 1

    Format profile : Layer 3

    Mode : Joint stereo

    Mode extension : MS Stereo

    Codec ID/Hint : MP3

    Duration : 1h 21mn

    Bit rate mode : Constant

    Bit rate : 192 Kbps

    Channel(s) : 2 channels

    Sampling rate : 44.1 KHz

    Compression mode : Lossy

    Delay relative to video : 40ms

    Stream size : 112 MiB (6%)

    Alignment : Aligned on interleaves

    Interleave, duration : 26 ms (0.65 video frame)

    Ущелье Духов (1991) VHSRip, MB

    скачать фильм торрент ущелье духов

    Скачать фильм торрент ущелье духов

    Информация о фильме

    В ролях: Александр Казаков, Вадим Степашкин, Владислав Толдыков, Виктор Павлюченков, Денис Банников, Мулькаман Оразов, Вадим Пожарский.

    Сценарий к фильму написал писатель и военный корреспондент Александр Проханов, который уже до этого, в 1988 году, совместно с режиссёром Алексеем Салтыковым написали сценарий к "нашумевшей" киноповести "За всё заплачено".

    О последней военной операции в Афганистане. Группа капитана Грачева получает задание захватить караван противника с оружием и наркотиками и разгромить одну из баз душманов. Пытаясь осмыслить суть этой странной и страшной войны группа встречает отчаянное сопротивление.

    Страна: Россия, Туркменистан

    Перевод: Не требуется (русский язык)

    Видео: 688x512 (1.34:1), 25 fps, XviD build 50

    1060 kbps avg, 0.12 bit/pixel

    Звук: 48 kHz, MPEG Layer 3, 2 ch,