File-Portal

скачать торрент про богатырей мультфильм

Рейтинг: 4.3/5.0 (303 проголосовавших)

Категория: Торрент-файлы

Описание

Три Богатыря (2004-2010) BDRip 1080p скачать торрент

Три Богатыря (2004-2010) BDRip 1080p

Скачать торрент про богатырей мультфильм

Скачать торрент про богатырей мультфильм

Информация о фильме:

Оригинальное название: Алеша Попович и Тугарин Змей

Год выхода: 2004

Жанр: мультфильм, мюзикл, мелодрама, комедия

Режиссер: Константин Бронзит

В ролях: Олег Куликович, Лия Медведева, Дмитрий Высоцкий, Анатолий Петров, Наталья Данилова, Сергей Маковецкий, Иван Краско, Татьяна Иванова, Михаил Черняк, Константин Бронзит

Качество: BDRip (источник: Blu-ray Disc)

Видео: 1920x1032 (1,860), 23.976 fps, 3523 kbps

Звук: 48 kHz, AC-3, 6 ch, 448 kbps

Скачать торрент про богатырей мультфильмСкачать торрент про богатырей мультфильмСкачать торрент про богатырей мультфильмСкачать торрент про богатырей мультфильм

Скачать торрент про богатырей мультфильм

Информация о фильме:

Оригинальное название: Добрыня Никитич и Змей Горыныч

Год выхода: 2006

Жанр: мультфильм, комедия, приключения

Режиссер: Илья Максимов

В ролях: Валерий Соловьев, Юрий Тарасов, Сергей Маковецкий, Андрей Толубеев, Екатерина Гороховская, Олег Куликович, Анатолий Петров, Наталья Данилова

Качество: BDRip (источник: Blu-ray Disc)

Видео: 1920x1032 (1,860), 23.976 fps, 4143 kbps

Звук: 48 kHz, AC-3, 6 ch, 448 kbps

Скачать торрент про богатырей мультфильмСкачать торрент про богатырей мультфильмСкачать торрент про богатырей мультфильмСкачать торрент про богатырей мультфильм

Скачать торрент про богатырей мультфильм

[ u]Информация о фильме:[/u]

Оригинальное название: Илья Муромец и Соловей Разбойник

Год выхода: 2007

Жанр: мультфильм, комедия, приключения

Режиссер: Владимир Торопчин

В ролях: Олег Табаков, Сергей Маковецкий, Валерий Соловьев, Екатерина Гороховская, Анатолий Петров, Андрей Толубеев, Олег Куликович, Юрий Тарасов, Наталья Данилова

Качество: BDRip (источник: Blu-ray Disc)

Видео: 1920x1032 (1,860), 23.976 fps, 3486 kbps

Звук: 48 kHz, AC-3, 6 ch, 448 kbps

Скачать торрент про богатырей мультфильмСкачать торрент про богатырей мультфильмСкачать торрент про богатырей мультфильмСкачать торрент про богатырей мультфильм

Скачать торрент про богатырей мультфильм

Информация о фильме:

Оригинальное название: Три богатыря и Шамаханская царица

Год выхода: 2010

Жанр: мультфильм, комедия, приключения, семейный

Режиссер: Сергей Глезин

В ролях: Дмитрий Быковский-Ромашов, Валерий Соловьев, Олег Куликович, Сергей Маковецкий, Анна Геллер, Дмитрий Высоцкий, Константин Бронзит, Мария Цветкова-Овсянникова, Елена Шульман, Лия Медведева

скачать торрент про богатырей мультфильм:

  • скачать
  • скачать
  • Другие статьи

    Три богатыря: Коллекция (2004-2014) BDRip от Страник 2

    скачать торрент про богатырей мультфильм

    Скачать торрент про богатырей мультфильм Скачать торрент про богатырей мультфильм Скачать торрент про богатырей мультфильм Скачать торрент про богатырей мультфильм Скачать торрент про богатырей мультфильм Скачать торрент про богатырей мультфильм Скачать торрент про богатырей мультфильм Скачать торрент про богатырей мультфильм Скачать торрент про богатырей мультфильм Скачать торрент про богатырей мультфильм Скачать торрент про богатырей мультфильм Скачать торрент про богатырей мультфильм Скачать торрент про богатырей мультфильм Скачать торрент про богатырей мультфильм Скачать торрент про богатырей мультфильм

    Скачать торрент про богатырей мультфильм

    Три богатыря: Коллекция (2004-2014) BDRip от Страник 2.0 - скачать торрент

    Скачать торрент про богатырей мультфильм

    Добавлено: 25 фев 2015

    • Скачать торрент про богатырей мультфильм

    Год выхода: 2004, 2006, 2007, 2010, 2012, 2014 г.,

    Жанр: Комедия, Семейный, Мультфильм

    Продолжительность: 01:18:46 | 01:08:08 | 01:19:31 | 01:16:32 | 01:11:18 | 01:14:42

    Название : Алеша Попович и Тугарин Змей

    Жанр : Мультфильм, мюзикл, фэнтези, мелодрама, комедия

    Режиссер : Константин Бронзит

    Роли озвучивали : Олег Куликович, Лия Медведева, Дмитрий Высоцкий, Анатолий Петров, Наталья Данилова, Сергей Маковецкий, Иван Краско, Татьяна Иванова, Михаил Черняк, Константин Бронзит и др.

    Описание : В древнем русском городе Ростове родился в поповской семье сын. Назвали его родители Алешей. А когда он вырос и стал богатырем, то совершил такие подвиги, что стал героем русских былин Алешей Поповичем. Только подвиги его начались с конфуза…

    Подступила к Ростову тугарская вражеская орда во главе с Тугарином Змеем и потребовала, чтобы жители города выплатили дань. Поповский сын предложил план действий. Народ этот план одобрил и собрал гору золота. Алеша же умудрился собственный план «благополучно» провалить, да с каким треском!

    И золото упустил, и полгорода разрушил. После чего поклялся — Тугарина Змея изловить и золото вернуть. Отправился Алеша Попович в путь вместе с дедом Тихоном, который мальчика вырастил и воспитал, а чуть позже компанию им составили говорящий конь Юлий, купленный у цыган, почти 16-летняя красавица Любава, ее бабка и их ослик Моисей…

    Производство : Кинокомпания CTB, Анимационная студия Мельница

    Качество : BDRip (Исходник - Blu-ray Disc)

    Видео : XVID, 720x384 (1.85:1), 23.976 fps, 1154 Kbps

    Аудио : Русский , AC3, 128 Кбит/с, 48.0 Hz, 2 ch

    Complete name : E:/Torrent_2/Три богатыря. Коллекция [2004-2014, XviD BDRip, RUS] [Страник 2.0]/Алеша Попович и Тугарин Змей [2004, XviD BDRip, RUS][Страник 2.0].avi

    Format/Info : Audio Video Interleave

    File size : 727 MiB

    Duration : 1h 18mn

    Overall bit rate : 1 291 Kbps

    Writing application : VirtualDubMod 1.5.10.3 (build 2550/release)

    Writing library : VirtualDubMod build 2550/release

    Format : MPEG-4 Visual

    Format profile : Advanced Simple@L5

    Format settings, BVOP : 2

    Format settings, QPel : No

    Format settings, GMC : No warppoints

    Format settings, Matrix : Default (H.263)

    Codec ID/Hint : XviD

    Duration : 1h 18mn

    Bit rate : 1 154 Kbps

    Width : 720 pixels

    Height : 384 pixels

    Display aspect ratio : 1.85:1

    Frame rate : 23.976 fps

    Color space : YUV

    Chroma subsampling : 4:2:0

    Bit depth : 8 bits

    Scan type : Progressive

    Compression mode : Lossy

    Stream size : 650 MiB (89%)

    Writing library : XviD 1.2.1 (UTC 2008-12-04)

    Format/Info : Audio Coding 3

    Mode extension : CM (complete main)

    Format settings, Endianness : Big

    Duration : 1h 18mn

    Bit rate mode : Constant

    Bit rate : 128 Kbps

    Channel(s) : 2 channels

    Channel positions : Front: L R

    Sampling rate : 48.0 KHz

    Bit depth : 16 bits

    Compression mode : Lossy

    Stream size : 72.1 MiB (10%)

    Alignment : Split accross interleaves

    Interleave, duration : 42 ms (1.00 video frame)

    Interleave, preload duration : 500 ms

    Название : Добрыня Никитич и Змей Горыныч

    Жанр : Мультфильм, фэнтези, комедия, приключения

    Роли озвучивали : Валерий Соловьев, Юрий Тарасов, Сергей Маковецкий, Андрей Толубеев, Екатерина Гороховская, Олег Куликович, Анатолий Петров, Наталья Данилова и др.

    Описание : Пока храбрый воин Добрыня Никитич собирал с тугар дань, в Киеве похитили любимую племянницу князя — Забаву Путятичну. Вопреки воле князя, Добрыня с женихом Забавы Елисеем отправляется на ее поиски. В пути их ждет много приключений…

    Производство : Анимационная студия Мельница

    Качество : BDRip (Исходник - Blu-ray Disc)

    Видео : XVID, 720x384 (1.85:1), 23.976 fps, 1350 Kbps

    Аудио : Русский , AC3, 128 Кбит/с, 48.0 Hz, 2 ch

    Complete name : E:/Torrent_2/Три богатыря. Коллекция [2004-2014, XviD BDRip, RUS] [Страник 2.0]/Добрыня Никитич и Змей Горыныч [2006, XviD BDRip, RUS][Страник 2.0].avi

    Format/Info : Audio Video Interleave

    File size : 725 MiB

    Duration : 1h 8mn

    Overall bit rate : 1 487 Kbps

    Writing application : VirtualDubMod 1.5.10.3 (build 2550/release)

    Writing library : VirtualDubMod build 2550/release

    Format : MPEG-4 Visual

    Format profile : Advanced Simple@L5

    Format settings, BVOP : 2

    Format settings, QPel : No

    Format settings, GMC : No warppoints

    Format settings, Matrix : Default (H.263)

    Codec ID/Hint : XviD

    Duration : 1h 8mn

    Bit rate : 1 350 Kbps

    Width : 720 pixels

    Height : 384 pixels

    Display aspect ratio : 1.85:1

    Frame rate : 23.976 fps

    Color space : YUV

    Chroma subsampling : 4:2:0

    Bit depth : 8 bits

    Scan type : Progressive

    Compression mode : Lossy

    Stream size : 658 MiB (91%)

    Writing library : XviD 1.2.1 (UTC 2008-12-04)

    Format/Info : Audio Coding 3

    Mode extension : CM (complete main)

    Format settings, Endianness : Big

    Duration : 1h 8mn

    Bit rate mode : Constant

    Bit rate : 128 Kbps

    Channel(s) : 2 channels

    Channel positions : Front: L R

    Sampling rate : 48.0 KHz

    Bit depth : 16 bits

    Compression mode : Lossy

    Stream size : 62.3 MiB (9%)

    Alignment : Split accross interleaves

    Interleave, duration : 42 ms (1.00 video frame)

    Interleave, preload duration : 500 ms

    Название : Илья Муромец и Соловей Разбойник

    Жанр : Мультфильм, комедия, приключения

    Режиссер : Владимир Торопчин

    Роли озвучивали : Валерий Соловьев, Екатерина Гороховская, Анатолий Петров, Олег Табаков, Сергей Маковецкий, Андрей Толубеев, Олег Куликович, Юрий Тарасов, Наталья Данилова и др.

    Описание : Славится земля русская богатырями богатырскими да разбойниками разбойничьими… А сверху всего князь княжеский сидит, за всем следит и порядок наводит, если нужно. Да только не всегда выходит у князя так, как нужно — правильно. Вот и сейчас — с богатырём поругался, да от Соловья Разбойника урон потерпел немалый: увёл бандит окаянный казну государственную прямо из-под носа!Что делать князю? А ничего особенного — на то он и князь, чтоб из любой ситуации выход найти! Вот и отправились князь с Ильёй на поиски похищенного, а за ними вслед увязалась корреспондентка летописи «Новая береста». А дорога непростая выдалась, до самого Царьграда довела, где встретил их Император Византийский, да только незадача вышла — повздорили наши герои с императором этим, и заключил он против Князя Киевского и Земель русских союз с Соловьем Разбойником…

    Производство : Кинокомпания CTB, Анимационная студия Мельница

    Качество : BDRip (Исходник - Blu-ray Disc)

    Видео : XVID, 720x384 (1.85:1), 23.976 fps, 1142 Kbps

    Аудио : Русский , AC3, 128 Кбит/с, 48.0 Hz, 2 ch

    Complete name : E:/Torrent_2/Три богатыря. Коллекция [2004-2014, XviD BDRip, RUS] [Страник 2.0]/Илья Муромец и Соловей Разбойник [2007, XviD BDRip, RUS][Страник 2.0].avi

    Format/Info : Audio Video Interleave

    File size : 727 MiB

    Duration : 1h 19mn

    Overall bit rate : 1 279 Kbps

    Writing application : VirtualDubMod 1.5.10.3 (build 2550/release)

    Writing library : VirtualDubMod build 2550/release

    Format : MPEG-4 Visual

    Format profile : Advanced Simple@L5

    Format settings, BVOP : 2

    Format settings, QPel : No

    Format settings, GMC : No warppoints

    Format settings, Matrix : Default (H.263)

    Codec ID/Hint : XviD

    Duration : 1h 19mn

    Bit rate : 1 142 Kbps

    Width : 720 pixels

    Height : 384 pixels

    Display aspect ratio : 1.85:1

    Frame rate : 23.976 fps

    Color space : YUV

    Chroma subsampling : 4:2:0

    Bit depth : 8 bits

    Scan type : Progressive

    Compression mode : Lossy

    Stream size : 649 MiB (89%)

    Writing library : XviD 1.2.1 (UTC 2008-12-04)

    Format/Info : Audio Coding 3

    Mode extension : CM (complete main)

    Format settings, Endianness : Big

    Duration : 1h 19mn

    Bit rate mode : Constant

    Bit rate : 128 Kbps

    Channel(s) : 2 channels

    Channel positions : Front: L R

    Sampling rate : 48.0 KHz

    Bit depth : 16 bits

    Compression mode : Lossy

    Stream size : 72.8 MiB (10%)

    Alignment : Split accross interleaves

    Interleave, duration : 42 ms (1.00 video frame)

    Interleave, preload duration : 500 ms

    Название : Три богатыря и Шамаханская царица

    Жанр : Мультфильм, фэнтези, комедия, приключения

    Роли озвучивали : Дмитрий Быковский, Валерий Соловьев, Олег Куликович, Сергей Маковецкий, Анна Геллер, Дмитрий Высоцкий, Константин Бронзит, Мария Цветкова, Елена Шульман, Лия Медведева

    Описание : Легендарная Шамаханская царица, которая сводила с ума многих царей и простых смертных, положила свой глаз и на Киевского князя. Тот заболел любовью странной по ней. Но чтобы доставить в целости и сохранности эту чудо-богиню в Киев-Град, срочно из отпуска вызывают всех троих, уже знакомых нам, богатырей: Алёшу Поповича, Добрыню Никитича и Илью Муромца. Теперь троица должна решить, как быть дальше? Вроде бы и слухи о царице ходят нелестные, и князя жаль.

    Производство : Кинокомпания CTB, Анимационная студия Мельница

    Качество : BDRip (Исходник - Blu-ray Disc)

    Видео : XVID, 720x400 (16:9), 24.000 fps, 1194 Kbps

    Аудио : Русский , AC3, 128 Кбит/с, 48.0 Hz, 2 ch

    Complete name : E:/Torrent_2/Три богатыря. Коллекция [2004-2014, XviD BDRip, RUS] [Страник 2.0]/Три богатыря и Шамаханская царица [2010, XviD BDRip, RUS][Страник 2.0].avi

    Format/Info : Audio Video Interleave

    File size : 729 MiB

    Duration : 1h 16mn

    Overall bit rate : 1 331 Kbps

    Writing application : VirtualDubMod 1.5.10.3 (build 2550/release)

    Writing library : VirtualDubMod build 2550/release

    Format : MPEG-4 Visual

    Format profile : Advanced Simple@L5

    Format settings, BVOP : 2

    Format settings, QPel : No

    Format settings, GMC : No warppoints

    Format settings, Matrix : Default (H.263)

    Codec ID/Hint : XviD

    Duration : 1h 16mn

    Bit rate : 1 194 Kbps

    Width : 720 pixels

    Height : 400 pixels

    Display aspect ratio : 16:9

    Frame rate : 24.000 fps

    Color space : YUV

    Chroma subsampling : 4:2:0

    Bit depth : 8 bits

    Scan type : Progressive

    Compression mode : Lossy

    Stream size : 654 MiB (90%)

    Writing library : XviD 1.2.1 (UTC 2008-12-04)

    Format/Info : Audio Coding 3

    Mode extension : CM (complete main)

    Format settings, Endianness : Big

    Duration : 1h 16mn

    Bit rate mode : Constant

    Bit rate : 128 Kbps

    Channel(s) : 2 channels

    Channel positions : Front: L R

    Sampling rate : 48.0 KHz

    Bit depth : 16 bits

    Compression mode : Lossy

    Stream size : 70.1 MiB (10%)

    Alignment : Split accross interleaves

    Interleave, duration : 42 ms (1.00 video frame)

    Interleave, preload duration : 500 ms

    Название : Три богатыря на дальних берегах

    Жанр : Мультфильм, приключения, семейный

    Режиссер : Константин Феоктистов

    Роли озвучивали : Сергей Маковецкий, Елизавета Боярская, Фёдор Бондарчук, Дмитрий Быковский, Елена Шульман, Олег Куликович, Лия Медведева, Мария Цветкова, Дмитрий Высоцкий, Анатолий Петров, Наталья Данилова

    Описание : Очередное путешествие таит в себе не только новые опасности, но и новые земли. Герои держат путь далеко от дома и как всегда с благородной целью — помочь людям. Кому, зачем и как? Не по-богатырски это — в раздумья пускаться, когда время поджимает и нужно действовать! Правда, помощь иной раз оказывается хуже татарской орды, но богатыри не отчаиваются, тем более что у них много верных помощников. Ради спасения своих друзей, героям придется подчас идти на очень решительные шаги, жертвовать собой и не думать, что ждет их впереди. Но, как известно, удача любит смелых и отважных.

    Производство : Кинокомпания CTB, Анимационная студия Мельница

    Качество : BDRip (Исходник - Blu-ray Disc)

    Видео : XVID, 720x400 (16:9), 23.976 fps, 1290 Kbps

    Аудио : Русский , AC3, 128 Кбит/с, 48.0 Hz, 2 ch

    Complete name : E:/Torrent_2/Три богатыря. Коллекция [2004-2014, XviD BDRip, RUS] [Страник 2.0]/Три богатыря на дальних берегах [2012, XviD BDRip, RUS][Страник 2.0].avi

    Format/Info : Audio Video Interleave

    File size : 728 MiB

    Duration : 1h 11mn

    Overall bit rate : 1 427 Kbps

    Writing application : VirtualDubMod 1.5.10.3 (build 2550/release)

    Writing library : VirtualDubMod build 2550/release

    Format : MPEG-4 Visual

    Format profile : Advanced Simple@L5

    Format settings, BVOP : 2

    Format settings, QPel : No

    Format settings, GMC : No warppoints

    Format settings, Matrix : Default (H.263)

    Codec ID/Hint : XviD

    Duration : 1h 11mn

    Bit rate : 1 290 Kbps

    Width : 720 pixels

    Height : 400 pixels

    Display aspect ratio : 16:9

    Frame rate : 23.976 fps

    Color space : YUV

    Chroma subsampling : 4:2:0

    Bit depth : 8 bits

    Scan type : Progressive

    Compression mode : Lossy

    Stream size : 658 MiB (90%)

    Writing library : XviD 1.2.1 (UTC 2008-12-04)

    Format/Info : Audio Coding 3

    Mode extension : CM (complete main)

    Format settings, Endianness : Big

    Duration : 1h 11mn

    Bit rate mode : Constant

    Bit rate : 128 Kbps

    Channel(s) : 2 channels

    Channel positions : Front: L R

    Sampling rate : 48.0 KHz

    Bit depth : 16 bits

    Compression mode : Lossy

    Stream size : 65.3 MiB (9%)

    Alignment : Split accross interleaves

    Interleave, duration : 42 ms (1.00 video frame)

    Interleave, preload duration : 500 ms

    Название : Три богатыря: Ход конём

    Жанр : мультфильм, комедия, приключения, фэнтези

    Режиссер : Константин Феоктистов

    Роли озвучивали : Сергей Маковецкий, Дмитрий Быковский-Ромашов, Валерий Соловьев, Олег Куликович, Дмитрий Высоцкий, Дмитрий Нагиев, Наргиз Закирова, Гоша Куценко

    Описание : Придворный конь Гай Юлий Цезарь на свою беду подслушивает разговор бояр и узнает о заговоре против князя. Что же делать? Защитить-то князя некому! Богатыри далеко — ловят разбойника Потаню, Горыныч в отпуске, войско на учениях… Но если плохие парни собираются захватить мир, то кому-то же надо его спасти? Кто же он, настоящий герой, который придет на помощь? Конечно, конь Юлий! Настоящий стратег и «великий комбинатор». Он непременно всех спасет, а если не спасет, то хотя бы постарается. Главное, чтобы операция по спасению мира не обернулась полной катастрофой.

    Производство : Кинокомпания CTB, Анимационная студия Мельница

    Качество : BDRip (Исходник - Blu-ray Disc)

    Видео : XVID, 720x384 (16:9), 24.000 fps, 1220 Kbps

    Аудио : Русский , AC3, 128 Кбит/с, 48.0 Hz, 2 ch

    Complete name : E:/Torrent_2/Три богатыря. Коллекция [2004-2014, XviD BDRip, RUS] [Страник 2.0]/Три богатыря. Ход конём [2014, XviD BDRip, RUS][Страник 2.0].avi

    Format/Info : Audio Video Interleave

    File size : 725 MiB

    Duration : 1h 14mn

    Overall bit rate : 1 357 Kbps

    Writing application : VirtualDubMod 1.5.10.3 (build 2550/release)

    Writing library : VirtualDubMod build 2550/release

    Format : MPEG-4 Visual

    Format profile : Advanced Simple@L5

    Format settings, BVOP : 2

    Format settings, QPel : No

    Format settings, GMC : No warppoints

    Format settings, Matrix : Default (H.263)

    Codec ID/Hint : XviD

    Duration : 1h 14mn

    Bit rate : 1 220 Kbps

    Width : 720 pixels

    Height : 384 pixels

    Display aspect ratio : 1.85:1

    Frame rate : 24.000 fps

    Color space : YUV

    Chroma subsampling : 4:2:0

    Bit depth : 8 bits

    Scan type : Progressive

    Compression mode : Lossy

    Stream size : 652 MiB (90%)

    Writing library : XviD 1.2.1 (UTC 2008-12-04)

    Format/Info : Audio Coding 3

    Mode extension : CM (complete main)

    Format settings, Endianness : Big

    Duration : 1h 14mn

    Bit rate mode : Constant

    Bit rate : 128 Kbps

    Channel(s) : 2 channels

    Channel positions : Front: L R

    Sampling rate : 48.0 KHz

    Bit depth : 16 bits

    Compression mode : Lossy

    Stream size : 68.4 MiB (9%)

    Alignment : Split accross interleaves

    Interleave, duration : 42 ms (1.00 video frame)

    Три Богатыря

    Три Богатыря. Сборник мультфильмов (2004)

    Дата выхода в России (или в Мире): 01.01.2004

    1. Алеша Попович и Тугарин Змей

    2. Добрыня Никитич и Змей Горыныч

    3. Илья Муромец и Соловей Разбойник

    4. Три богатыря и Шамаханская царица

    5. Три богатыря на дальних берегах

    6. Три богатыря: Ход конем

    7. Три богатыря и Морской царь

    1. Алеша Попович и Тугарин Змей

    В древнем русском городе Ростове родился в поповской семье сын. Назвали его родители Алешей. А когда он вырос и стал богатырем, то совершил такие подвиги, что стал героем русских былин Алешей Поповичем. Только подвиги его начались с конфуза…

    2. Добрыня Никитич и Змей Горыныч

    Пока храбрый воин Добрыня Никитич собирал с тугар дань, в Киеве похитили любимую племянницу князя — Забаву Путятичну. Вопреки воле князя, Добрыня с женихом Забавы Елисеем отправляется на ее поиски. В пути их ждет много приключений…

    3. Илья Муромец и Соловей Разбойник

    Славится земля русская богатырями богатырскими да разбойниками разбойничьими… А сверху всего князь княжеский сидит, за всем следит и порядок наводит, если нужно. Да только не всегда выходит у князя так, как нужно — правильно. Вот и сейчас — с богатырём поругался да от Соловья Разбойника урон потерпел немалый: увёл бандит окаянный казну государственную прямо из-под носа!

    4. Три богатыря и Шамаханская царица

    Легендарная Шамаханская царица, которая сводила с ума многих царей и простых смертных, положила свой глаз и на Киевского князя. Тот заболел любовью странной по ней. Но чтобы доставить в целости и сохранности эту чудо-богиню в Киев-Град, срочно из отпуска вызывают всех троих, уже знакомых нам, богатырей: Алёшу Поповича, Добрыню Никитича и Илью Муромца. Теперь троица должна решить, как быть дальше? Вроде бы и слухи о царице ходят нелестные, и князя жаль.

    5. Три богатыря на дальних берегах

    6. Три богатыря: Ход конем

    7. Три богатыря и Морской царь

    У богатырей семейные неурядицы. Чтобы развеяться, они решают по-быстрому сгонять в Китай за зубом дракона, символом мудрости и силы. В это же время князь Киевский отправляется на прогулку вместе с конем Юлием за сокровищами морского царя, чтобы пополнить казну и «залатать бюджет». Да вот только морской царь решил жениться и для этого утопил Киев. И как теперь быть? Что поможет нашим героям? Дружба, смелость и, конечно, любовь.