File-Portal

гринфилд фильм скачать торрент

Рейтинг: 4.3/5.0 (73 проголосовавших)

Категория: Торрент-файлы

Описание

Типа копы

Страна: США
Жанр: комедия, криминал
Год выпуска: 2014
Продолжительность: 01:44:28
Перевод: Профессиональный (дублированный) Line
Cубтитры: английские
Оригинальная аудиодорожка: английская

Режиссер: Люк Гринфилд / Luke Greenfield

В ролях: Дэймон Уайанс мл. Джейк Джонсон, Роб Риггл, Нина Добрев, Джеймс Д’Арси, Энди Гарсиа, Кигэн-Майкл Ки, Джон Лажуа, Том Мардиросян, Наташа Леггеро

Описание: Получив приглашение на костюмированную вечеринку, два нерадивых приятеля решают нарядиться полицейскими, и вдруг их популярность среди гостей подскакивает до максимума. На волне успеха парни продолжают игру. Но неожиданно псевдокопы оказываются впутанными в реальную криминальную историю, и теперь им придется применить свои фальшивые значки по полной.

Качество видео: BDRip-AVC (Lets.Be.Cops.2014.1080p.BluRay.REMUX.AVC.DTS-HD.MA.5.1)
Формат видео: MKV
Видео: x.264, 1056x572, 3090 kbps, 23.976 fps
Аудио 1: AC3, 384 Kbps, 48000 Hz, 2.0 channels - Line
Аудио 2: AC3, 448 Kbps, 48000 Hz, 5.1 channels - Eng
Субтитры: SRT - английские ( 2 вида)

Похожие новости Комментарии (2)

Информация
Посетители, находящиеся в группе Гости. не могут оставлять комментарии к данной публикации.

гринфилд фильм скачать торрент:

  • скачать
  • скачать
  • Другие статьи

    Фильмы Макс Гринфилд полная фильмография, доступная онлайн и для скачивания смотреть онлайн или скачать бесплатно в хорошем качестве без регистрации 2

    Всё / Макс Гринфилд

    Когда речь идет о деньгах, совесть молчит. А уж если речь об огромных деньгах. Это основанная на реальных событиях история нескольких провидцев, которые независимо друг от друга предсказали мировой экономический кризис 2008 года задолго до того, как о нем зашептались в кулуарах на Уолл-стрит. И предсказав, стали на нем зарабатывать. Сами того не желая.

    Скачать и Смотреть Скачали: 63853Дата выхода фильма: 14.01.2016Последний торрент добавлен: 24.01.2017

    Здравствуйте, меня зовут Дорис (2015)
    ( Hello, My Name Is Doris )

    Дорис Миллер — типичный Нью-Йоркский офисный работник в возрасте за шестьдесят, после смерти своей матери начинает посещать семинары по самопомощи. Приняв советы от гуру мотивации, Дорис становится сексуально одержимой своим новым коллегой Джоном, который вдвое её моложе.

    Скачать и Смотреть Скачали: 9258Дата выхода фильма: 14.03.2015Последний торрент добавлен: 31.08.2016

    Про Алекса (2014)
    ( About Alex )

    История о семи друзьях по колледжу, которые вновь собрались вместе после того, как один из них попытался покончить с собой. Друзья приезжают на выходные, чтобы приглядеть за Алексом и тут, за разговорами, всплывают былые обиды, и их дружба начинает трещать по швам.

    СкачатьСкачали: 2264Дата выхода фильма: 17.04.2014Последний торрент добавлен: 30.03.2015

    Они пришли вместе (2014)
    ( They Came Together )

    Когда Джоэл и Молли встречаются в первый раз, между ними нет ничего, кроме ненависти: крупная компания Джоэла, мегасеть кондитерских, угрожает закрыть ее маленький симпатичный кондитерский магазинчик. Преодолевая причудливые ситуации, невыносимых членов семьи и таких же бывших любовников, Джоэл и Молли столкнутся с весьма серьезными препятствиями на пути к их истинной любви.

    Скачать и Смотреть Скачали: 37860Дата выхода фильма: 24.01.2014Последний торрент добавлен: 25.10.2014

    Новенькая (2011)
    ( New Girl )

    Комедия о сексуальных отношениях мужчин и женщин. В центре сюжета — Джессика, оптимистичная, но несчастная в любви учительница начальной школы, которая после последнего разрыва въезжает в квартиру, где уже живут три парня.

    Скачать и Смотреть Скачали: 750065Дата выхода фильма: 20.09.2011Последний торрент добавлен: 31.08.2017

    Подпишись на нашу группу Вконтакте!


    Создание и продвижение сайта - Кивано

    Вы зашли на сайт под своей учетной записью, но у вас нет права добавлять коментарии.

    Стандартная авторизация Авторизация через соцсети

    Вы также можете воспользоваться своим логином на одном из популярных сайтов:

    Скачать торрент Животное

    Скачать через торрент Животное The Animal Фильм бесплатно в хорошем качестве torrent

    Перевод 2. Профессиональный (многоголосый закадровый) DVD R5

    Перевод 3. Авторский (одноголосый закадровый) Ю. Живов

    Cубтитры. русские, английские (отключаемые)

    Оригинальная аудиодорожка. английский

    Режиссер. Люк Гринфилд / Luke Greenfield

    В ролях. Роб Шнайдер, Коллин Хэскелл, Джон К. МакГинли, Эдвард Эснер, Майкл Кейтон, Луис Ломбарди, Гай Торри, Боб Рубин, Пилар Шнайдер, Скотт Уилсон

    Описание. Какие только странные пути порой не ведут к исполнению желаний! Простак Марвин всю жизнь мечтал стать крутым полицейским. Но тщетно. Не было счастья, да несчастье помогло: попав в автокатастрофу, герой был спасен от смерти слегка чокнутым доктором Уайлдером.

    Вышедшие из строя внутренние органы Марвина тот заменил на органы разных животных, благодаря чему его пациент не только выздоровел, но и обрел таланты своих доноров. Используя новые возможности, герой наконец становится настоящим суперкопом, но. Вместе с отличными рефлексами, силой и выносливостью Марвин получил от зверей и их дремучие инстинкты, внезапно и всегда не вовремя пробуждающиеся!

    Релиз от. HDclub

    Тип релиза. WEB-DL 1080p

    Видео. 1920x1080 at 25.000 fps, MPEG-4 AVC,

    Аудио 1. Russian: 48 kHz, AC3, 2/0 (L,R) ch,

    192.00 kbps avg |Дубляж|

    Аудио 2. Russian: 48 kHz, AC3, 3/2 (L,C,R,l,r) + LFE ch,

    448.00 kbps avg |Многоголосый закадровый, DVD R5|

    Аудио 3. Russian: 48 kHz, AC3, 3/2 (L,C,R,l,r) + LFE ch,

    448.00 kbps avg |Авторский одноголосый закадровый, Ю. Живов|

    Аудио 4. Ukrainian: 48 kHz, AC3, 2/0 (L,R) ch,

    192.00 kbps avg |Двухголосый закадровый, Новый канал|

    Аудио 5. Ukrainian: 48 kHz, AC3, 2/0 (L,R) ch,

    192.00 kbps avg |Двухголосый закадровый, ТЕТ|

    Аудио 6. English: 48 kHz, AC3, 3/2 (L,C,R,l,r) + LFE ch,

    448.00 kbps avg |Оригинал, DVD R5|

    Unique ID. 195065576364206330925685090932088844012 (0x92C043725EB99700A418EA62EA932EEC)

    Complete name. D:\Dowloands\Видео\The.Animal.2001.1080p.WEB-DL.3xRus.2xUkr.Eng.HDCLUB.mkv

    Format version. Version 4 / Version 2

    File size. 9.12 GiB

    Duration. 1 h 19 min

    Overall bit rate mode. Variable

    Overall bit rate. 16.4 Mb/s

    Movie name. Release by spartanec163

    Encoded date. UTC 2017-03-14 16:37:02

    Writing application. mkvmerge v8.3.0 ('Over the Horizon') 64bit

    Writing library. libebml v1.3.1 + libmatroska v1.4.2

    Classic rock, easy listening) Greenfield - Cook - Greenfield - Cook - 1972, (tracks

    Exact Audio Copy V1.0 beta 2 from 29. April 2011

    EAC extraction logfile from 8. December 2012, 0:33

    Greenfield And Cook / Greenfield And Cook

    Used drive. HL-DT-STDVD-RAM GH22LP20 Adapter: 0 ID: 0

    Read mode. Secure
    Utilize accurate stream. Yes
    Defeat audio cache. Yes
    Make use of C2 pointers. No

    Read offset correction. 102
    Overread into Lead-In and Lead-Out. No
    Fill up missing offset samples with silence. Yes
    Delete leading and trailing silent blocks. No
    Null samples used in CRC calculations. Yes
    Used interface. Installed external ASPI interface
    Gap handling. Appended to previous track

    Used output format. User Defined Encoder
    Selected bitrate. 256 kBit/s
    Quality. High
    Add ID3 tag. No
    Command line compressor. C:\Program Files\Exact Audio Copy\FLAC\FLAC.EXE
    Additional command line options. -8 -V -T "ARTIST=%artist%" -T "TITLE=%title%" -T "ALBUM=%albumtitle%" -T "DATE=%year%" -T "TRACKNUMBER=%tracknr%" -T "GENRE=%genre%" -T "COMMENT=%comment%" %hascover%--picture="%coverfile%"%hascover% %source% -o %dest%

    TOC of the extracted CD

    Track | Start | Length | Start sector | End sector
    ---------------------------------------------------------
    1 | 0:00.00 | 2:17.20 | 0 | 10294
    2 | 2:17.20 | 3:16.19 | 10295 | 25013
    3 | 5:33.39 | 3:45.60 | 25014 | 41948
    4 | 9:19.24 | 2:24.16 | 41949 | 52764
    5 | 11:43.40 | 3:19.17 | 52765 | 67706
    6 | 15:02.57 | 2:46.16 | 67707 | 80172
    7 | 17:48.73 | 3:31.21 | 80173 | 96018
    8 | 21:20.19 | 2:16.29 | 96019 | 106247
    9 | 23:36.48 | 1:18.62 | 106248 | 112159
    10 | 24:55.35 | 3:09.19 | 112160 | 126353
    11 | 28:04.54 | 2:28.46 | 126354 | 137499
    12 | 30:33.25 | 3:48.06 | 137500 | 154605

    Filename I:\Torrents 2\Greenfield and Cook (1972) [FLAC] \01 - Don't Turn Me Loose.wav

    Pre-gap length 0:00:02.00

    Peak level 94.1 %
    Extraction speed 1.4 X
    Track quality 100.0 %
    Test CRC D78A208B
    Copy CRC D78A208B
    Track not present in AccurateRip database
    Copy OK

    Filename I:\Torrents 2\Greenfield and Cook (1972) [FLAC] \02 - To Rob, What Am I Supposed To Do.wav

    Pre-gap length 0:00:02.00

    Peak level 99.5 %
    Extraction speed 1.6 X
    Track quality 100.0 %
    Test CRC 72766FC4
    Copy CRC 72766FC4
    Track not present in AccurateRip database
    Copy OK

    Filename I:\Torrents 2\Greenfield and Cook (1972) [FLAC] \03 - Where.wav

    Pre-gap length 0:00:02.00

    Peak level 93.9 %
    Extraction speed 1.8 X
    Track quality 100.0 %
    Test CRC E97C9271
    Copy CRC E97C9271
    Track not present in AccurateRip database
    Copy OK

    Filename I:\Torrents 2\Greenfield and Cook (1972) [FLAC] \04 - Darling Darling.wav

    Pre-gap length 0:00:02.00

    Peak level 99.5 %
    Extraction speed 1.8 X
    Track quality 100.0 %
    Test CRC 1133A78F
    Copy CRC 1133A78F
    Track not present in AccurateRip database
    Copy OK

    Filename I:\Torrents 2\Greenfield and Cook (1972) [FLAC] \05 - Going Home.wav

    Pre-gap length 0:00:02.00

    Peak level 79.0 %
    Extraction speed 2.0 X
    Track quality 100.0 %
    Test CRC E9224D48
    Copy CRC E9224D48
    Track not present in AccurateRip database
    Copy OK

    Filename I:\Torrents 2\Greenfield and Cook (1972) [FLAC] \06 - Baby Don't Cry.wav

    Pre-gap length 0:00:02.00

    Peak level 99.5 %
    Extraction speed 2.0 X
    Track quality 100.0 %
    Test CRC CBA3741B
    Copy CRC CBA3741B
    Track not present in AccurateRip database
    Copy OK

    Filename I:\Torrents 2\Greenfield and Cook (1972) [FLAC] \07 - Only Lies.wav

    Pre-gap length 0:00:02.00

    Peak level 99.5 %
    Extraction speed 2.2 X
    Track quality 100.0 %
    Test CRC C64C8576
    Copy CRC C64C8576
    Track not present in AccurateRip database
    Copy OK

    Filename I:\Torrents 2\Greenfield and Cook (1972) [FLAC] \08 - All Over The World.wav

    Pre-gap length 0:00:02.00

    Peak level 99.5 %
    Extraction speed 2.1 X
    Track quality 100.0 %
    Test CRC 75A836EB
    Copy CRC 75A836EB
    Track not present in AccurateRip database
    Copy OK

    Filename I:\Torrents 2\Greenfield and Cook (1972) [FLAC] \09 - It's Up To You.wav

    Pre-gap length 0:00:02.00

    Peak level 97.9 %
    Extraction speed 1.9 X
    Track quality 100.0 %
    Test CRC E939C92A
    Copy CRC E939C92A
    Track not present in AccurateRip database
    Copy OK

    Filename I:\Torrents 2\Greenfield and Cook (1972) [FLAC] \10 - It's Up To You - Part 2.wav

    Pre-gap length 0:00:02.00

    Peak level 99.5 %
    Extraction speed 2.0 X
    Track quality 99.9 %
    Test CRC 2DFC5BD5
    Copy CRC 2DFC5BD5
    Track not present in AccurateRip database
    Copy OK

    Filename I:\Torrents 2\Greenfield and Cook (1972) [FLAC] \11 - Gone.wav

    Pre-gap length 0:00:02.00

    Peak level 99.5 %
    Extraction speed 2.3 X
    Track quality 100.0 %
    Test CRC C0690789
    Copy CRC C0690789
    Track not present in AccurateRip database
    Copy OK

    Filename I:\Torrents 2\Greenfield and Cook (1972) [FLAC] \12 - The End.wav

    Pre-gap length 0:00:02.00

    Peak level 97.1 %
    Extraction speed 2.3 X
    Track quality 99.9 %
    Test CRC 76CAEF8A
    Copy CRC 76CAEF8A
    Track not present in AccurateRip database
    Copy OK

    None of the tracks are present in the AccurateRip database

    No errors occurred

    End of status report

    ==== Log checksum 83FE51DF1A759AF3C94F7A5317751140BAED682CA80A57FF2C1FF223078AA3C7 ====

    REM DATE 1972
    REM DISCID 9D080D0C
    REM COMMENT "ExactAudioCopy v1.0b2"
    PERFORMER "Greenfield And Cook"
    TITLE "Greenfield And Cook"
    FILE "01 - Don't Turn Me Loose.wav" WAVE
    TRACK 01 AUDIO
    TITLE "Don't Turn Me Loose"
    PERFORMER "Greenfield And Cook"
    INDEX 01 00:00:00
    TRACK 02 AUDIO
    TITLE "To Rob, What Am I Supposed To Do"
    PERFORMER "Greenfield And Cook"
    INDEX 00 02:15:20
    FILE "02 - To Rob, What Am I Supposed To Do.wav" WAVE
    INDEX 01 00:00:00
    TRACK 03 AUDIO
    TITLE "Where"
    PERFORMER "Greenfield And Cook"
    INDEX 00 03:14:19
    FILE "03 - Where.wav" WAVE
    INDEX 01 00:00:00
    TRACK 04 AUDIO
    TITLE "Darling Darling"
    PERFORMER "Greenfield And Cook"
    INDEX 00 03:43:60
    FILE "04 - Darling Darling.wav" WAVE
    INDEX 01 00:00:00
    TRACK 05 AUDIO
    TITLE "Going Home"
    PERFORMER "Greenfield And Cook"
    INDEX 00 02:22:16
    FILE "05 - Going Home.wav" WAVE
    INDEX 01 00:00:00
    TRACK 06 AUDIO
    TITLE "Baby Don't Cry"
    PERFORMER "Greenfield And Cook"
    INDEX 00 03:17:17
    FILE "06 - Baby Don't Cry.wav" WAVE
    INDEX 01 00:00:00
    TRACK 07 AUDIO
    TITLE "Only Lies"
    PERFORMER "Greenfield And Cook"
    INDEX 00 02:44:16
    FILE "07 - Only Lies.wav" WAVE
    INDEX 01 00:00:00
    TRACK 08 AUDIO
    TITLE "All Over The World"
    PERFORMER "Greenfield And Cook"
    INDEX 00 03:29:21
    FILE "08 - All Over The World.wav" WAVE
    INDEX 01 00:00:00
    TRACK 09 AUDIO
    TITLE "It's Up To You"
    PERFORMER "Greenfield And Cook"
    INDEX 00 02:14:29
    FILE "09 - It's Up To You.wav" WAVE
    INDEX 01 00:00:00
    TRACK 10 AUDIO
    TITLE "It's Up To You - Part 2"
    PERFORMER "Greenfield And Cook"
    INDEX 00 01:16:62
    FILE "10 - It's Up To You - Part 2.wav" WAVE
    INDEX 01 00:00:00
    TRACK 11 AUDIO
    TITLE "Gone"
    PERFORMER "Greenfield And Cook"
    INDEX 00 03:07:19
    FILE "11 - Gone.wav" WAVE
    INDEX 01 00:00:00
    TRACK 12 AUDIO
    TITLE "The End"
    PERFORMER "Greenfield And Cook"
    INDEX 00 02:26:46
    FILE "12 - The End.wav" WAVE
    INDEX 01 00:00:00

    AUDIOCHECKER v2.0 beta (build 457) - by Dester - opdester@freemail.hu


    -=== DO NOT EDIT THIS FILE! ===-

    Path. \Greenfield & Cook - Greenfield & Cook - 1972

    01 -=- 01 - Don't Turn Me Loose.flac -=- CDDA (100%)
    02 -=- 02 - To Rob, What Am I Supposed To Do.flac -=- CDDA (99%)
    03 -=- 03 - Where.flac -=- CDDA (100%)
    04 -=- 04 - Darling Darling.flac -=- CDDA (100%)
    05 -=- 05 - Going Home.flac -=- CDDA (100%)
    06 -=- 06 - Baby Don't Cry.flac -=- CDDA (100%)
    07 -=- 07 - Only Lies.flac -=- CDDA (100%)
    08 -=- 08 - All Over The World.flac -=- CDDA (100%)
    09 -=- 09 - It's Up To You.flac -=- CDDA (100%)
    10 -=- 10 - It's Up To You - Part 2.flac -=- CDDA (100%)
    11 -=- 11 - Gone.flac -=- CDDA (100%)
    12 -=- 12 - The End.flac -=- CDDA (100%)

    Summary 99,92% CDDA

    Доп. информация. Редкий и интерестный дуэт Ринк Гринфильда и Питера Кука (ex-Hurricanes). Исполняют лёгкий рок. Лёгкие голоса, нежно играющие инструменты. Стиль напоминает исполнение Саймона и Гарфункеля. Музыка для отдыха. Скачивайте, не пожалеете.

    С удовольствием отдам любой свой рип для коллекции или дискографии.

    Гарфилд (2004) смотреть онлайн в хорошем качестве бесплатно

    Гарфилд (2004) смотреть онлайн 720 hd

    BDRip 1080p Размер: 4.37 GB Скачать

    Рецензия к фильму Гарфилд (2004)

    Гарфилд онлайн это просто великолепная комедия для детей, которую снимали по одному из комиксов об очень ленивом рыжем коте. Смотреть Гарфилд онлайн захотят как взрослые, так и их дети. Режиссеры создали Гарфилда как анимационного героя мультфильма, и вот в этом они были совершенно правы. Гарфилд онлайн получился очень интересным котом, при первом только появлении его на экране у всех сразу же появлялась улыбка на лице, некоторые даже просто начинают смеяться без повода, от одного только вида этого толстенного кота. Сюжет был продуман, вот это меня и удивило, это не типичный мультик о чем-то там, а вполне хорошее поучения для детей о дружбе и вообще, о человечески отношениях. Вам предстоит смотреть Гарфилд онлайн и видеть как же из самовлюблённого кота эгоиста, которого интересует в жизни только лазанья и ничего больше. он превратится в замечательного друга, который способен будет совершать хорошие для общества поступки. Мультфильм конечно очень предсказуем, но это качество имеется у многих семейных мультфильмов, и фильмов, конечно же. Смотреть Гарфилд онлайн будет интереснее в семейно обстановке. Детишки точно останутся довольны от шуток рыжего кота по имени Гарфилд. Мультфильм Гарфилд онлайн прорисован просто замечательно, кот двигается, оставляет после себя различные следы, тень и многое другое. Все очень реалистично смотрится на экране. Ну и не только рыжий кот обладает такими качествами, все остальные персонажи мультфильма так же выглядят очень реалистично и имеют место в этом мультике. Мультфильм Гарфилд онлайн является одним из лучших в своём жанре, его нужно обязательно увидеть. Советую смотреть Гарфилд онлайн на мониторе или экране с хорошим качеством, для того чтобы была видна вся реалистичность картины. Ну и, конечно же, для своего наслаждения. Начните смотреть Гарфилд онлайн прямо сейчас, это тот мультфильм, которому я бы отдал 10 из 10 баллов!

    Свернуть все ↑

    Безумные похороны / Eulogy (2004)

    День катастрофы (2004)

    Сердца в Атлантиде (2001)

    Посетители, находящиеся в группе Гости, не могут комментировать.
    После регистрации часть рекламы прячется.