File-Portal

скачать команда а через торрент

Рейтинг: 4.4/5.0 (137 проголосовавших)

Категория: Торрент-файлы

Описание

Команда «А» скачать торрент в хорошем качестве бесплатно dvdrip, hdrip

скачать команда а через торрент

Скачать команда а через торрент

Оригинальное название: The A-Team

Премьера в мире: 3 июня 2010

Дата выхода в России: 10 июня 2010, «Двадцатый Век Фокс СНГ»

Продолжительность: 118 мин. / 01:58

Четверо старых друзей-ветеранов прошли вместе боевой путь в Ираке и не утратили еще своих навыков. Каждый из них профессионал в своем деле, а все вместе они по-прежнему команда. За долгие годы службы они нажили немало врагов, и однажды их несправедливо обвиняют в преступлении.

Так как друзья не могут предоставить доказательства своей невиновности, им не остается ничего другого, как пуститься в бега. Преследуемые полицией и лучшими армейскими кадрами, герои не падают духом, и успевают побывать в разных переделках и нанести немалый «урон» неприятелю в виде разбитых носов и изрядно помятой внешности.

Друзья намерены добиться правды и выяснить, кто истинный виновник преступления. И плохим парням не рекомендуется стоять у них на пути – когда неистовая четверка берется за дело, правила хорошего тона отходят на второй план.

скачать команда а через торрент:

  • скачать
  • скачать
  • Другие статьи

    Команда «А» (2010) BDRip скачать торрент

    Команда «А» (2010) BDRip

    Скачать команда а через торрент

    США Режиссерская версия, HDTV 720p

    Режиссёр: Джо Карнахан

    В ролях: Лиам Нисон, Джералд МакРэйни, Брэдли Купер, Генри Черни, Куинтон Джексон, Юл Васкез, Патрик Уилсон, Джессика Бил, Брайан Блум, Шарлто Копли

    Полнометражный римейк одноименного сериала 80-х годов. В центре текущего сюжета четверо ветеранов войны в Ираке, каждый из которых профессионал в своей области. Их обвиняют в совершении преступлении, и поскольку герои не в состоянии доказать свою невиновность, они пускаются в бега. На их поимку брошены лучшие полицейские кадры и отборные армейские подразделения. Уходя от преследования отвязная четверка успеет влипнуть не в одну заварушку, и «начистить рыло» не одному десятку плохих парней.

    В фильме также присутствует большое количество военной техники и вооружения последнего поколения и море отменного юмора. Несмотря на отсутствие оригинального сюжета и определенную неправдоподобность некоторых ситуаций, «Команда А» успела получить множество восторженных откликов от российских зрителей. Этот фильм определенно стоит того, чтобы скачать его

    Скачать команда а через торрент

    Скачать команда а через торрент

    Скачать команда а через торрент

    Скачать команда а через торрент

    Видео кодек: H.26x

    Аудио кодек: AAC

    Видео:1056х448 (2,35:1) at 23,976 fps,

    Аудио#1: Russian: HE-AAC, 224 Kbps, 48 kHz, 6 channels Проф. (полное дублирование)

    Аудио#2: English: HE-AAC, 224 Kbps, 48 kHz, 6 channels [Оригинал]

    Команда «А»

    Команда «А»/ The A-Team (2010)

    Скачать команда а через торрент

    Оригинальное название: The A-Team

    Жанр: боевик, триллер, комедия, приключения

    Режиссер: Джо Карнахан / Joe Carnahan

    В ролях: Лиам Нисон, Брэдли Купер, Джессика Бил, Куинтон Джексон, Шарлто Копли, Патрик Уилсон, Джералд МакРэйни, Генри Черни, Юл Васкез, Брайан Блумти др.

    Страна: США, Dune Entertainment

    Скачать команда а через торрент

    Перевод: Профессиональный (дублированный) [лицензия]

    Скачать команда а через торрент

    Скачать команда а через торрент

    Скачать команда а через торрент

    Аудио: MPEG Audio Layer 3 48000Hz stereo 128kbps

    Скачать команда а через торрент

    Команда «А» / The A-Team (2010) BDRip-AVC | Расширенная версия

    Перевод 2 : Профессиональный (многоголосый закадровый) 1 Канал

    Скачать команда а через торрент

    Скачать команда а через торрент

    Скачать команда а через торрент

    Скачать команда а через торрент

    Видео: AVC, 1120x476, 4704 Kbps, 23.976 fps, 0.368 bit/pixel.

    Аудио 1 : AC3, 3/2 (L,C,R,l,r) + LFE ch, 48 kHz, 448 kbps |Дубляж. Blu-ray CEE|

    Аудио 2 : AC3, 2/0 (L,R) ch, 48 kHz, 192 kbps |MVO. 1 Канал|

    Аудио 3 : AC3, 3/2 (L,C,R,l,r) + LFE ch, 48 kHz, 448 kbps |Original|

    Субтитры: Русские (Форсированные), Русские (Полные), English (Forced), English (SDH), English (Commentary)

    Скачать фильм Команда «А»

    Скачать фильм Команда «А» / The A-Team (Джо Карнахан) [2010, боевик, триллер, комедия, приключения, HDRip-AVC] DUB - торрент

    Нажмите на синюю кнопку ниже, чтобы скачать фильм бесплатно через торрент. Фильм доступен на нашем торрент-трекере бесплатно, без регистрации и смс.

    Скачать команда а через торрентПеревод: Профессиональный (полное дублирование), cубтитры: отсутствуют

    Формат: HDRip-AVC, MKV, H.264, AC3

    Режиссер: Джо Карнахан

    Описание: Группа ветеранов войны в Ираке, несправедливо обвиненных в преступлении, пытается найти истинных виновников и вернуть себе честное имя.

    Скачать команда а через торрент Скачать команда а через торрент

    Видео: 1024х432 (2,35:1), 23,976 fps, AVC (х264), High@L4.1,

    1500 Kbps, 0.141 bit/pixel

    Аудио: 48 kHz, AC3 Dolby Digital, 3/2 (L,C,R,l,r) + LFE ch,

    Релиз от | | by Dean24

    Уникальный идентификатор: 150136931118797225463459498712119446624 (0x70F352363B4E695E134088F13C1D0C60)

    Полное имя: D:\Мои рипы\the_a_team_[my-tfile.org].mkv

    Версия формата: Version 2

    Размер файла: 1,57 Гбайт

    Продолжительность: 1 ч. 58 м.

    Общий поток: 1887 Кбит/сек

    Программа кодирования: XviD4PSP 6.0 / 53.6.0

    Библиотека кодирования: XviD4PSP 6.0 / 53.6.0

    Формат/Информация: Advanced Video Codec

    Профиль формата: High@L4.1

    Параметр CABAC формата: Да

    Параметр ReFrames формата: 8 кадров

    Идентификатор кодека: V_MPEG4/ISO/AVC

    Продолжительность: 1 ч. 58 м.

    Битрейт: 1500 Кбит/сек

    Ширина: 1024 пикс.

    Высота: 432 пикс.

    Соотношение сторон: 2,35:1

    Соотношение сторон в оригинале: 2,35:1

    Режим частоты кадров: Переменный

    Частота кадров: 23,976 кадр/сек

    Цветовое пространство: YUV

    Подвыборка цветности: 4:2:0

    Битовая глубина: 8 бит

    Тип развёртки: Прогрессивная

    Размер потока: 1,22 Гбайт (78%)

    Библиотека кодирования: x264 core 116 r2019M 9cc407d

    Настройки программы: cabac=1 / ref=9 / deblock=1:-2:-2 / analyse=0x3:0x133 / me=umh / subme=9 / psy=1 / psy_rd=1.00:0.20 / mixed_ref=1 / me_range=32 / chroma_me=1 / trellis=1 / 8x8dct=1 / cqm=0 / deadzone=21,11 / fast_pskip=1 / chroma_qp_offset=-3 / threads=6 / sliced_threads=0 / nr=0 / decimate=1 / interlaced=0 / bluray_compat=0 / constrained_intra=0 / bframes=9 / b_pyramid=1 / b_adapt=2 / b_bias=0 / direct=3 / weightb=1 / open_gop=0 / weightp=2 / keyint=230 / keyint_min=23 / scenecut=40 / intra_refresh=0 / rc_lookahead=60 / rc=2pass / mbtree=1 / bitrate=1500 / ratetol=1.0 / qcomp=0.60 / qpmin=0 / qpmax=69 / qpstep=4 / cplxblur=20.0 / qblur=0.5 / ip_ratio=1.40 / aq=1:1.00

    Формат/Информация: Audio Coding 3

    Расширение режима: CM (complete main)

    Идентификатор кодека: A_AC3

    Продолжительность: 1 ч. 58 м.

    Вид битрейта: Постоянный

    Битрейт: 384 Кбит/сек

    Каналы: 6 каналов

    Расположение каналов: Front: L C R, Side: L R, LFE

    Частота: 48,0 КГц

    Битовая глубина: 16 бит

    Метод сжатия: С потерями

    Размер потока: 326 Мбайт (20%)

    Скачать команда а через торрент

    Скачать команда а через торрент

    Скачать команда а через торрент

    Скачать команда а через торрент

    Скачать команда а через торрент

    Информация о торренте:

    Скачан: 9222 раза

    Статус: Проверен Зарегистрирован на трекере: 2012-02-06 16:51

    Фильм Команда «А» (2010) скачать торрент в хорошем качестве HD 1080 бесплатно

    Скачать фильм "Команда «А»" через торрент в хорошем качестве бесплатно

    Скачать команда а через торрент

    Оригинальное название: The A-Team

    Слоган: «План 'Б' не предусмотрен»

    Премьера в мире: 3 июня 2010

    Премьера в России: 10 июня 2010

    Продолжительность: 118 мин. / 01:58

    Описание: Команда А – это незабываемый и смешной боевик. В нем солдаты корпуса А были оклеветаны и их не за что посадили в тюрьму. Для того, чтобы вернуть себе честное имя солдата и офицера, они устроили побег из тюрьмы. Их друзья отправили им в помощь оружие и ключи, но не от машины, а от самолета. Собравшись с силами, они смогли пройти через всю охрану, найти нужный самолет и очень быстро улететь, но оставив после себя полный разгром. При взлете самолет разбил все другие, поэтому никто их и не смог догнать. Они собрали себе новую команду и решили самостоятельно раскрыть свое дело. Но минус в том, что их разыскивают во всем мире агенты ЦРУ, ФБР.