File-Portal

порожний рейс скачать торрент

Рейтинг: 4.2/5.0 (71 проголосовавших)

Категория: Торрент-файлы

Описание

Порожний рейс скачать торрент (Владимир Венгеров) 1962, Драма, DVDRip

Порожний рейс (Владимир Венгеров) [1962, Драма, DVDRip]

Стаж: 12 лет 10 месяцев

intellect · 07-Июн-10 20:02 (7 лет 2 месяца назад)

Год выпуска : 1962

Режиссер : Владимир Венгеров

В ролях : Георгий Юматов, Александр Демьяненко, Тамара Семина, Герман Качин, Светлана Харитонова, Анатолий Папанов, Борис Чирков

Описание : По одноименному рассказу Сергея Антонова.

Молодой журналист центральной газеты Сироткин приехал в сибирский леспромхоз, чтобы написать очерк о славном шофере Хромове. Но вскоре пытливый ум Сироткина вычислил хитрость Хромова, который, отмечая в путевках один километраж, ездил коротким, только ему известным маршрутом, сливая оставшийся бензин у обочин. Раскрыв еще одну махинацию, в которой был замешан и директор, Сироткин понял, что очерка писать не будет…

Серебряная медаль на 3 -м МКФ в Москве(1963 год).

Видео кодек : DivX

Аудио кодек : AC3

Видео : 720x336 (2.14:1), 25 fps, DivX Codec 5.x or 6.x

Аудио : 48 kHz, AC3 Dolby Digital, 2/0 (L,R) ch,

порожний рейс скачать торрент:

  • скачать
  • скачать
  • Другие статьи

    Порожний рейс (1962) DVDRip

    Порожний рейс (1962) DVDRip

    Порожний рейс скачать торрент

    Год выпуска: 1962

    Жанр: Драматическая история

    Выпущено: СССР, Ленфильм

    Молодой журналист центральной газеты Сироткин приехал в сибирский леспромхоз, чтобы написать очерк о славном шофере Хромове. Но вскоре пытливый ум Сироткина вычислил хитрость Хромова, который, отмечая в путевках один километраж, ездил коротким, только ему известным маршрутом, сливая оставшийся бензин у обочин. Раскрыв еще одну махинацию, в которой был замешан и директор, Сироткин понял, что очерка писать не будет, а повезет материалы для судебного процесса. Об этом и поставил в известность начальство леспромхоза. Вез журналиста в обратный путь сам Хромов.

    Актеры: Георгий Юматов, Александр Демьяненко, Тамара Семина, Анатолий Папанов, Герман Качин, Светлана Харитонова, Борис Чирков, Николай Крюков, Ирина Губанова, Виктория Горшенина, Николай Кузьмин, Олег Хроменков

    Размер кадра: 688 x 304

    Качество видео: DVDRip

    Аудиокодек: AC3 2.0

    Битрейт аудио: 192 kb/s

    Победитель: Серебряная премия

    Номинации: Главный приз

    Полное имя : Porozhniy.reys.1962.DivX.DVDRip.avi

    Формат/Информация : Audio Video Interleave

    Размер файла : 1,09 Гбайт

    Продолжительность : 1 ч. 28 м.

    Общий поток : 1769 Кбит/сек

    Программа кодирования : VirtualDubModRus 1.5.10.2 (build 2542/release)

    Библиотека кодирования : VirtualDubMod build 2542/release

    Формат : MPEG-4 Visual

    Параметр BVOP формата : Да

    Параметр QPel формата : Нет

    Параметр GMC формата : Без точки перехода

    Параметр матрицы формата : Default (H.263)

    Идентификатор кодека : DX50

    Идентификатор кодека/Подсказка : DivX 5

    Продолжительность : 1 ч. 28 м.

    Битрейт : 1567 Кбит/сек

    Ширина : 688 пикселей

    Высота : 304 пикселя

    Соотношение сторон : 2,25:1

    Частота кадров : 25,000 кадров/сек

    Цветовое пространство : YUV

    Субдискретизация насыщенности : 4:2:0

    Битовая глубина : 8 бит

    Тип развёртки : Прогрессивная

    Метод сжатия : С потерями

    Размер потока : 992 Мбайт (89%)

    Библиотека кодирования : DivX 6.8.3-6.8.4 (UTC 2008-06-07)

    Формат/Информация : Audio Coding 3

    Расширение режима : CM (complete main)

    Параметр Endianness формата : Big

    Идентификатор кодека : 2000

    Продолжительность : 1 ч. 28 м.

    Вид битрейта : Постоянный

    Битрейт : 192 Кбит/сек

    Каналы : 2 канала

    Расположение каналов : Front: L R

    Частота : 48,0 КГц

    Битовая глубина : 16 бит

    Метод сжатия : С потерями

    Размер потока : 121 Мбайт (11%)

    Выравнивание : Соединение по промежуткам

    Продолжительность промежутка : 40 мс. (1,00 видеокадр)

    Порожний рейс (1963) скачать торрент (torrent) бесплатно

    порожний рейс скачать торрент

    Порожний рейс скачать торрент

    Порожний рейс скачать торрент

    Порожний рейс скачать торрент

    Порожний рейс скачать торрент

    Порожний рейс скачать торрент

    * Форматы и их краткое описание.

    AVI - видео кодеки XviD, стандартное разрешение фильма 720x384;

    MKV - видео кодеки AVC, стандартное разрешение фильма 720x384;

    MKV 720р - видео кодеки H.26x или AVC, стандартное разрешение фильма 1280 x 720;

    MKV 1080р - видео кодеки H.26x или AVC, стандартное разрешение фильма 1920x1080;

    DVD video - образ DVD диска, видео кодеки MPEG2, стандартное разрешение фильма 720x576.

    M2TS - образ Blu-Ray диска, стандартное разрешение фильма 1920x1080;

    Порожний рейс () год выпуска 1963 скачать торрент бесплатно, без регистрации и SMS (СМС).

    Порожний рейс (1962) DVDRip-AVC, GB

    порожний рейс скачать торрент

    Порожний рейс скачать торрент

    Порожний рейс скачать торрент

    Описание: В сибирский леспромхоз приезжает молодой журналист Сироткин, чтобы написать очерк о шофере-передовике Хромове. Познакомившись с делами, он узнает, что шофер замешан в темных махинациях директора леспромхоза. Почувствовав опасность, директор поручает Хромову покончить с журналистом, когда тот повезет его обратно…

    Оригинальное название: Porozhniy reys

    Оператор: Генрих Маранджян

    Страна: Порожний рейс скачать торрент

    Качество: DVDRip-AVC /исходник DVD5/

    Видео: MPEG4 Video (H264) 696x350, 25.00fps,

    1583 kbps avg, 0.26 bit/pixel

    Аудио: 48 kHz, AC3 Dolby Digital, 2 channels,

    Порожний рейс (1962) DVDRip-AVC

    Порожний рейс (1962) DVDRip-AVC

    Magnet-ссылка (альтернативная ссылка для скачивания файла)

    Порожний рейс скачать торрент

    Оригинальное название: Porozhniy reys

    Порожний рейс скачать торрент

    Порожний рейс скачать торрент

    File size : 1.10 GiB

    Duration : 1h 28mn

    Overall bit rate : 1 777 Kbps

    Encoded date : UTC 2010-08-08 18:10:37

    Writing application : mkvmerge v3.1.0 ('Happy up here') built on Jan 19 2010 12:09:24

    Writing library : libebml v0.7.9 + libmatroska v0.8.1

    Format/Info : Advanced Video Codec

    Format profile : Main@L3.0

    Format settings, CABAC : No

    Format settings, ReFrames : 4 frames

    Muxing mode : Container profile=Unknown@3.0

    Codec ID : V_MPEG4/ISO/AVC

    Duration : 1h 28mn

    Bit rate : 1 583 Kbps

    Width : 696 pixels

    Height : 350 pixels

    Display aspect ratio : 1.989

    Frame rate : 25.000 fps

    Color space : YUV

    Chroma subsampling : 4:2:0

    Bit depth : 8 bits

    Scan type : Progressive

    Stream size : 981 MiB (87%)

    Writing library : x264 core 98 r1649 c54c47d

    Encoding settings : cabac=0 / ref=2 / deblock=1:6:6 / analyse=0:0 / me=dia / subme=0 / psy=1 / psy_rd=0.00:0.00 / mixed_ref=0 / me_range=16 / chroma_me=1 / trellis=0 / 8x8dct=0 / cqm=0 / deadzone=21,11 / fast_pskip=1 / chroma_qp_offset=0 / threads=1 / sliced_threads=0 / nr=0 / decimate=1 / interlaced=0 / constrained_intra=0 / bframes=8 / b_pyramid=2 / b_adapt=0 / b_bias=2 / direct=1 / weightb=0 / weightp=0 / keyint=250 / keyint_min=25 / scenecut=0 / intra_refresh=0 / rc=2pass / mbtree=0 / bitrate=1583 / ratetol=1.0 / qcomp=0.60 / qpmin=10 / qpmax=51 / qpstep=4 / cplxblur=20.0 / qblur=0.5 / ip_ratio=1.40 / pb_ratio=1.30 / aq=0

    Format/Info : Audio Coding 3

    Mode extension : CM (complete main)

    Codec ID : A_AC3

    Duration : 1h 28mn

    Bit rate mode : Constant

    Bit rate : 192 Kbps

    Channel(s) : 2 channels

    Channel positions : Front: L R

    Sampling rate : 48.0 KHz

    Bit depth : 16 bits

    Stream size : 121 MiB (11%)

    Видео: MPEG4 Video (H264) 696x350, 25.00fps,

    1583 kbps avg, 0.26 bit/pixel

    Аудио: 48 kHz, AC3 Dolby Digital, 2 channels,