File-Portal

скачать мажор фильм торрент

Рейтинг: 4.4/5.0 (39 проголосовавших)

Категория: Торрент-файлы

Описание

Скачать торрент Мажор S01 (2014) WEB-DLRip от GeneralFilm

Скачать торрент Мажор [S01] (2014) WEB-DLRip от GeneralFilm

Скачать мажор фильм торрент

Скачать мажор фильм торрент

Оригинальное название: Мажор

Режиссер: Константин Статский

В ролях: Павел Прилучный, Карина Разумовская, Дмитрий Шевченко, Денис Шведов, Александр Обласов, Никита Панфилов, Анна Андрусенко, Остап Ступка, Александр Дьяченко, Игорь Жижикин, Заза Чантурия, Дмитрий Гаврилов (II), Марина Дьяконенко, Алла Мартынюк, Саак Дурян

Главный герой – Игорь Соколовский – сын высокопоставленного и богатого человека. Имея юридическое образование, Игорь не спешит найти ему применение, прожигая жизнь в ночных клубах с друзьями. Однажды, вступившись за товарища, Игорь ввязывается в драку с полицейским. Замяв историю, отец лишает Игоря всего, отправляя работать в то самое отделение полиции. Поначалу возненавидев свою новую жизнь, Игорь постепенно становится мужчиной, встречает любовь и задаётся целью найти убийцу матери.

скачать мажор фильм торрент:

  • скачать
  • скачать
  • Другие статьи

    Скачать сериал Мажор (2014) через торрент

    Скачать сериал Мажор (1 сезон: 1-12 серии из 12) (Константин Статский) / [2014, криминал, драма, детектив, WEB-DLRip-AVC] - торрент

    Скачать сериал бесплатно через торрент. Сериал доступен на нашем торрент-трекере бесплатно, без регистрации и смс.

    «Умереть, чтобы родиться»

    1850 kbps avg, 0.127 bit/pixel

    Аудио: 48 kHz, AC3 Dolby Digital, 2/0 (L,R) ch,

    Unique ID : 174151751673907165076789351554905944951 (0x830468478A754AA285F184EBDAE23377)

    Complete name : E:\Mazhor.2014.x264.WEB-DLRip.(AVC).ExKinoRay\Mazhor.(01.seriya.iz.12).2014.x264.WEB-DLRip.(AVC).ExKinoRay.mkv

    File size : 800 MiB

    Duration : 54mn 19s

    Overall bit rate : 2 058 Kbps

    Encoded date : UTC 2015-01-03 12:21:49

    Writing application : mkvmerge v6.1.0 ('Old Devil') built on Mar 4 2013 09:10:42

    Writing library : libebml v1.3.0 + libmatroska v1.4.0

    Format/Info : Advanced Video Codec

    Format profile : High@L3.2

    Format settings, CABAC : Yes

    Format settings, ReFrames : 8 frames

    Codec ID : V_MPEG4/ISO/AVC

    Duration : 54mn 19s

    Bit rate : 1 868 Kbps

    Width : 1 024 pixels

    Height : 576 pixels

    Display aspect ratio : 16:9

    Frame rate : 25.000 fps

    Color space : YUV

    Chroma subsampling : 4:2:0

    Bit depth : 8 bits

    Scan type : Progressive

    Stream size : 709 MiB (89%)

    Writing library : x264 core 138 r2358 9e941d1

    Encoding settings : cabac=1 / ref=8 / deblock=1:-2:-2 / analyse=0x3:0x133 / me=umh / subme=11 / psy=1 / psy_rd=1.00:0.10 / mixed_ref=1 / me_range=48 / chroma_me=1 / trellis=2 / 8x8dct=1 / cqm=0 / deadzone=21,11 / fast_pskip=0 / chroma_qp_offset=-3 / threads=6 / lookahead_threads=1 / sliced_threads=0 / nr=0 / decimate=1 / interlaced=0 / bluray_compat=0 / constrained_intra=0 / bframes=8 / b_pyramid=2 / b_adapt=1 / b_bias=0 / direct=3 / weightb=1 / open_gop=0 / weightp=2 / keyint=250 / keyint_min=25 / scenecut=40 / intra_refresh=0 / rc_lookahead=40 / rc=2pass / mbtree=1 / bitrate=1868 / ratetol=1.0 / qcomp=0.60 / qpmin=0 / qpmax=69 / qpstep=4 / cplxblur=20.0 / qblur=0.5 / ip_ratio=1.40 / aq=1:1.00

    Format/Info : Audio Coding 3

    Mode extension : CM (complete main)

    Codec ID : A_AC3

    Duration : 54mn 19s

    Bit rate mode : Constant

    Bit rate : 192 Kbps

    Channel(s) : 2 channels

    Channel positions : Front: L R

    Sampling rate : 48.0 KHz

    Bit depth : 16 bits

    Compression mode : Lossy

    Stream size : 74.6 MiB (9%)

    Скачать мажор фильм торрент

    Скачать мажор фильм торрент

    Скачать мажор фильм торрент

    Скачать мажор фильм торрент

    Скачать мажор фильм торрент

    Скачать мажор фильм торрент

    Скачать мажор фильм торрент

    Скачать мажор фильм торрент

    Информация о торренте:

    Скачан: 85997 раз

    Статус: Проверен Зарегистрирован на трекере: 2015-02-11 14:20

    Мажор (2014) скачать торрент бесплатно без регистрации

    Мажор (2014)

    Скачать мажор фильм торрент

    Год выхода: 2014

    Жанр: драма, криминал

    Режиссер: Константин Статский

    В ролях: Павел Прилучный, Карина Разумовская, Дмитрий Шевченко, Денис Шведов, Александр Обласов, Никита Панфилов, Анна Андрусенко, Остап Ступка, Александр Дьяченко, Игорь Жижикин, Заза Чантурия, Дмитрий Гаврилов, Марина Дьяконенко, Алла Мартынюк, Саак Дурян

    Продолжительность: 12 x 01:00:00

    Озвучивание: Оригинал (русский)

    Размер: 12 x 650 MB

    Скачать мажор фильм торрент

    Скачать мажор фильм торрент

    Скачать мажор фильм торрент

    Похожие новости Комментарии (1)

    Посетители, находящиеся в группе Гости, не могут оставлять комментарии к данной публикации.

    Мажор 2 сезон (2016) фильм скачать через торрент в хорошем качестве hd бесплатно без регистрации

    Мажор 2 сезон (2016) скачать торрент

    Скачать мажор фильм торрент

    Скачать мажор фильм торрент

    Оригинальное название: Мажор

    Год выпуска: 2016

    Жанр: Криминал, драма

    Выпущено: Россия, ООО "Студия Русский Проект"

    Режиссер: Константин Статский

    В ролях: Павел Прилучный, Карина Разумовская, Дмитрий Шевченко, Денис Шведов, Александр Обласов, Никита Панфилов, Анна Андрусенко, Остап Ступка, Александр Дьяченко, Игорь Жижикин, Заза Чантурия, Дмитрий Гаврилов (II), Марина Дьяконенко, Алла Мартынюк, Саак Дурян

    Тем более, стало известно, что мать Игорька не покончила жизнь самоубийством. Теперь появился смысл в этой работе. Парень хочет докопаться до правды. Изначально он думал, что во всем виноват его отец. Вот только, папа всегда безумно любил не только покойную супругу, но и единственного сына. К сожалению, Соколовский младший понял это слишком поздно. Тем не менее, сейчас Игорь узнал имя человека, который разрушил всю его семью. Естественно, мажор не будет сидеть сложа руки. Теперь Игорек сделает все, лишь бы только наказать наглеца, который и сам сознался во всем содеянном. Вот только, теперь главный герой – полицейский, и действовать он может исключительно в рамках закона.

    Мажор (2014) скачать торрент файл бесплатно

    Мажор (2014)

    Скачать мажор фильм торрент

    Год выхода: 2014

    Жанр: драма, криминал

    Режиссер: Константин Статский

    В ролях: Павел Прилучный, Карина Разумовская, Дмитрий Шевченко, Денис Шведов, Александр Обласов, Никита Панфилов, Анна Андрусенко, Остап Ступка, Александр Дьяченко, Игорь Жижикин, Заза Чантурия, Дмитрий Гаврилов, Марина Дьяконенко, Алла Мартынюк, Саак Дурян

    Продолжительность: 12 x 01:00:00

    Озвучивание: Оригинал (русский)

    Размер: 12 x 650 MB

    Во время очередной гулянки, парень попал в драку, и после приехала полиция. Мажор заступился за своего друга и отобрал оружие у работника полиции. Такая ситуация очень плохо отобразилась на жизни парня. А папа когда узнал о случившемся пытался всячески наказать сына за это, и в знак наказания отправляет его на роботу в отдел правоохранительных органов, где был задержан сын после разбоя. Все были очень удивлены такому сотруднику, и поэтому все начинают всячески его задевать и смеяться над ним.

    Для парня такая работа и обстановка в отделе была полным унижением, оскорблением с которым смирится он никак не хочет.

    После множества пройденных испытаний парень проходит курс молодого бойца и становится настоящим мужчиной. Он научился зарабатывать деньги, и начал их ценить. А также осознал, что не все так просто в этой жизни, за все нужно отвечать. Игорь встречает любимую девушку. Становиться гордостью своего отца!