File-Portal

медвежатник скачать торрент

Рейтинг: 5.0/5.0 (284 проголосовавших)

Категория: Торрент-файлы

Описание

Медвежатник скачать торрент

Медвежатник / The Score (2001) BDRip 1080p

Медвежатник скачать торрент

Оригинальное название: The Score

Год выхода: 2001

Жанр: Триллер, боевик, драма, криминал

Режиссер: Фрэнк Оз

В ролях: Роберт Де Ниро, Эдвард Нортон, Марлон Брандо, Анджела Бассетт, Гэри Фармер, Пол Соулз, Джэми Харольд, Серж Уд, Жан-Рене Уэлле, Мартин Дрэнвиль

Ник Уеллс - профессиональный вор, решивший отойти от дел, после того, как его чуть было не поймали во время последнего дела. Теперь он живёт в Монреале, владеет джаз-клубом и наслаждается жизнью со своей невестой. Однако бывший партнер по нелегальному бизнесу предлагает Нику выкрасть старинный и бесценный французский скипетр, перед отправкой во Францию хранящийся в монреальской таможне. Нику придётся работать в паре с молодым и агрессивным вором Джеком Теллером, который собирается сделать всё возможное, чтобы после этого дела Ник остался ни с чем.

Студия: Cineartists AG, Eagle Point Production и др.

Перевод: Многоголосый, закадровый

Качество: BDRip 1080p

Видео: 1920 x 816 (2.353) at 23.976 fps/AVC at 10,8 Мбит/сек

Аудио 1: AC-3 at 448 Кбит/сек/6 каналов, 48,0 КГц (Переиздание R1 Позитив-Мультимедиа)

Аудио 2:AC-3 at 448 Кбит/сек/2 канала, 48,0 КГц (Позитив-Мультимедиа)

медвежатник скачать торрент:

  • скачать
  • скачать
  • Другие статьи

    Скачать фильм Медвежатник

    Скачать фильм Медвежатник / The Score (Фрэнк Оз) [2001, боевик, триллер, криминал, HDRip-AVC]MVO - торрент

    Бесплатные торренты всегда на нашем сайте и в хорошем качестве! Фильм доступен на нашем торрент-трекере бесплатно, без регистрации и смс.

    Медвежатник скачать торрентПеревод: Профессиональный (многоголосый, закадровый), cубтитры: отсутствуют

    Формат: HDRip-AVC, MKV, H.264, AC3

    Страна: США, Германия

    Медвежатник скачать торрент Медвежатник скачать торрент

    1976 Kbps, 0.182 bit/pixel

    Аудио#2 : английский 48 kHz, AC3 Dolby Digital, 3/2 (L,C,R,l,r) + LFE ch,

    Уникальный идентификатор : 208453983375179763741947352818877380600 (0x9CD2C6E05B37D825BB4976ADCC7AB7F

    Полное имя : E:\Medvezhatnik.mkv

    Версия формата : Version 4 / Version 2

    Размер файла : 2,19 Гбайт

    Продолжительность : 2 ч. 4 м.

    Общий поток : 2520 Кбит/сек

    Дата кодирования : UTC 2013-12-31 09:21:43

    Программа кодирования : mkvmerge v6.3.0 ('You can't stop me!') built on Jun 28 2013 20:09:41

    Библиотека кодирования : libebml v1.3.0 + libmatroska v1.4.0

    Формат/Информация : Advanced Video Codec

    Профиль формата : High@L4.1

    Параметр CABAC формата : Да

    Параметр ReFrames формата : 6 кадров

    Идентификатор кодека : V_MPEG4/ISO/AVC

    Продолжительность : 2 ч. 4 м.

    Битрейт : 1625 Кбит/сек

    Ширина : 1024 пикселя

    Высота : 436 пикселей

    Соотношение сторон : 2,35:1

    Режим частоты кадров : Постоянный

    Частота кадров : 23,976 кадра/сек

    Цветовое пространство : YUV

    Субдискретизация насыщенности : 4:2:0

    Битовая глубина : 8 бит

    Тип развёртки : Прогрессивная

    Размер потока : 1,37 Гбайт (62%)

    Библиотека кодирования : x264 core 138 r2356 a1d3d17

    Настройки программы : cabac=1 / ref=6 / deblock=1:-3:-2 / analyse=0x3:0x113 / me=umh / subme=10 / psy=1 / psy_rd=1.00:0.05 / mixed_ref=1 / me_range=32 / chroma_me=1 / trellis=2 / 8x8dct=1 / cqm=0 / deadzone=21,11 / fast_pskip=0 / chroma_qp_offset=-3 / threads=3 / lookahead_threads=1 / sliced_threads=0 / nr=0 / decimate=0 / interlaced=0 / bluray_compat=0 / constrained_intra=0 / bframes=8 / b_pyramid=2 / b_adapt=2 / b_bias=0 / direct=3 / weightb=1 / open_gop=0 / weightp=2 / keyint=240 / keyint_min=24 / scenecut=40 / intra_refresh=0 / rc_lookahead=40 / rc=2pass / mbtree=1 / bitrate=1625 / ratetol=1.0 / qcomp=0.60 / qpmin=0 / qpmax=69 / qpstep=4 / cplxblur=20.0 / qblur=0.5 / ip_ratio=1.40 / aq=1:1.00

    Формат/Информация : Audio Coding 3

    Расширение режима : CM (complete main)

    Параметр Endianness формата : Big

    Идентификатор кодека : A_AC3

    Продолжительность : 2 ч. 4 м.

    Вид битрейта : Постоянный

    Битрейт : 448 Кбит/сек

    Каналы : 6 каналов

    Расположение каналов : Front: L C R, Side: L R, LFE

    Частота : 48,0 КГц

    Битовая глубина : 16 бит

    Метод сжатия : С потерями

    Размер потока : 398 Мбайт (18%)

    Заголовок : Dolby Digital 5,1 448kb

    Формат/Информация : Audio Coding 3

    Расширение режима : CM (complete main)

    Параметр Endianness формата : Big

    Идентификатор кодека : A_AC3

    Продолжительность : 2 ч. 4 м.

    Вид битрейта : Постоянный

    Битрейт : 448 Кбит/сек

    Каналы : 6 каналов

    Расположение каналов : Front: L C R, Side: L R, LFE

    Частота : 48,0 КГц

    Битовая глубина : 16 бит

    Метод сжатия : С потерями

    Размер потока : 398 Мбайт (18%)

    Заголовок : Dolby Digital 5,1 448kb

    Медвежатник скачать торрент

    Медвежатник скачать торрент

    Медвежатник скачать торрент

    Медвежатник скачать торрент

    Медвежатник скачать торрент

    Медвежатник скачать торрент

    Информация о торренте:

    Скачан: 5154 раза

    Статус: Проверен Зарегистрирован на трекере: 2013-12-31 14:07

    Скачать торрент Медвежатник

    Медвежатник

    Оригинальное название: The Score

    Год выпуска: 2001

    Жанр: Триллер, криминальная драма

    Режиссер: Фрэнк Оз

    В ролях: Роберт Де Ниро, Эдвард Нортон, Марлон Брандо, Анджела Бассетт, Пол Соулз, Гэри Фармер, Джейми Харролд, Ричард Во, Марк Камачо, Джеймс Спэйдер, Лесли Стефансон, Джон Ливингстон, Кристиан Тессьер, Роберт Миано, Альф Хамфриз, Тим Генри, Ричард Земан, Скотт Хайндл, Алекс Захара, Алвин Сандерс

    Ник Уэллс - профессиональный вор, решивший отойти от дел, после того, как его чуть было не поймали во время последнего дела. Теперь он живет в Монреале, владеет джаз-клубом и наслаждается жизнью со своей невестой. Однако бывший партнер по нелегальному бизнесу предлагает Нику выкрасть старинный и бесценный французский скипетр, перед отправкой во Францию хранящийся в монреальской таможне. Нику придется работать в паре с молодым и агрессивным вором Джеком Теллером, который собирается сделать все возможное, чтобы после этого дела Ник остался ни с чем.

    Выпущено: США, Германия, Paramount Pictures, Mandalay Pictures

    Перевод: Профессиональный многоголосый, авторский

    Качество: BDRip 1080p (исходник Blu-ray)

    Видео: 1912x816, 8 314 Кбит/сек, 23.976 кадр/сек, AVC, x264, High@L4.1, 0.222 Бит/[Пиксели*Кадры], 2pass

    Аудио 1: Russian: 48 kHz, AC3, 3/2 (L,C,R,l,r) + LFE ch,

    640.00 kbps avg многоголосый, закадровый (Позитив-Мультимедиа)

    Аудио 2: Russian: 48 kHz, AC3, 3/2 (L,C,R,l,r) + LFE ch,

    448.00 kbps avg многоголосый, закадровый (с переиздания R1, название фильма переведено как "Счёт") - отдельно

    Аудио 3: Russian: 48 kHz, AC3, 3/2 (L,C,R,l,r) + LFE ch,

    640.00 kbps avg авторский одноголосый (Василий Горчаков) - отдельно

    Аудио 4: Russian: 48 kHz, AC3, 3/2 (L,C,R,l,r) + LFE ch,

    640.00 kbps avg авторский одноголосый (Юрий Живов) - отдельно

    Аудио 5: English: 48 kHz, AC3, 3/2 (L,C,R,l,r) + LFE ch,

    Скачать фильмы Медвежатник - ТОРРЕНТИНО - торрент трекер

    Медвежатник / Ограбление / Счёт / The Score (2001) BDRip

    Название: Медвежатник / Ограбление / Счёт / The Score

    Год выпуска: 2001

    Жанр: Триллер, Драма, Криминал

    Продолжительность: 124 минуты

    Перевод: Профессиональный (многоголосый, закадровый) + оригинал (английский)

    Субтитры: есть, русские и английские (отдельно)

    Режиссер: Фрэнк Оз

    В ролях: Роберт Де Ниро, Эдвард Нортон, Анжела Бассет, Марлон Брандо, Гэри Фармер, Джейми Хэролд, Пол Соулз, Мартин Дрэйнвиль

    Описание: Профессиональный взломщик сейфов Ник Уэллс (Де Ниро) принял решение уйти на покой. Уэллс уже немолод и достаточно обеспечен, чтобы навсегда "завязать" с "нелегким" ремеслом грабителя-медвежатника. У Ника - собственный джазовый клуб в Монреале и очаровательная возлюбленная (Анджела Бассетт). Совсем недавно он удачно "провернул" сложное ограбление, которое должно было стать последним.

    Но друг и партнер Уэллса, "наводчик" Макс (Брандо), сделал старому медвежатнику предложение, от которого тот не смог отказаться. Макс познакомил Уэллса с вором- новичком по имени Джек Теллер (Нортон), которому требовался опытный специалист по сейфам. Джек разрабатывал план похищения уникального скипетра стоимостью в 30 миллионов долларов, который находился в хорошо охраняемом здании городской таможни. Если Уэллс примет участие в деле, то его доля составит целых шесть миллионов долларов. И Ник соглашается сыграть в эту рискованную игру в последний раз, еще не зная, что она окажется очень опасной и сложной.

    Видео кодек: XviD

    Аудио кодек: AC3

    Видео: 720х296, 1726 kbps, 23.976 fps, 0.338 b/(p*f)

    Аудио 1: 48 KHz, 384 kbps, 5.1 ch Русский

    Аудио 2: 48 KHz, 384 kbps, 5.1 ch Английский

    Субтитры 1: SRT Русские (отдельным файлом)

    Субтитры 2: SRT Английские (отдельным файлом)

    Медвежатник (2001) скачать фильм через торрент бесплатно

    Медвежатник (2001)

    Название на русском: Медвежатник

    Страна: США, Германия

    Режиссер: Фрэнк Оз

    В главных ролях: Роберт Де Ниро, Эдвард Нортон, Марлон Брандо, Анджела Бассетт, Гэри Фармер, Пол Соулз, Джэми Харольд, Серж Уд, Жан-Рене Уэлле, Мартин Дрэнвиль

    Жанр: боевик, триллер, криминал

    Медвежатник скачать торрент

    Скачать торрент Медвежатник (2001)

    Видео: AVC (H264), 8314 kbps, 1912x816

    Аудио 1: Русский: 48 kHz, AC3, 3/2 (L,C,R,l,r) + LFE ch,

    640.00 kbps avg многоголосый, закадровый (Позитив-Мультимедиа)

    Аудио 2: Русский: 48 kHz, AC3, 3/2 (L,C,R,l,r) + LFE ch,

    448.00 kbps avg многоголосый, закадровый (с переиздания R1, название фильма переведено как "Счёт" - отдельно

    Аудио 3: Русский: 48 kHz, AC3, 3/2 (L,C,R,l,r) + LFE ch,

    640.00 kbps avg авторский одноголосый (Василий Горчаков) - отдельно

    Аудио 4: Русский: 48 kHz, AC3, 3/2 (L,C,R,l,r) + LFE ch,

    640.00 kbps avg авторский одноголосый (Юрий Живов) - отдельно

    Аудио 5: Английский: 48 kHz, AC3, 3/2 (L,C,R,l,r) + LFE ch,